Underworld 4 2012 [TS HQ][ESPAÑOL][MP4] [320x240][640x352] [480x320] - Hagale Pues
Header Hágale Pues
Retroceder   Hagale Pues » Foros de conversación » Zona audiovisual
Portal Foro Temas de Hoy Registrarse Buscar




Underworld 4 2012 [TS HQ][ESPAÑOL][MP4] [320x240][640x352] [480x320]



Respuesta
Herramientas
Antiguo 29/01/12, 14:34:57   #1
Usuario Nuevo
 
Fecha de Ingreso: dic 2010
Ubicación: argentina
Mensajes: 21
Temas: 10
Has agradecido: 0
Has sido agradecido 9 veces en 6 mensajes
Poder de Credibilidad: 0
apummr es un glorioso faro de luzapummr es un glorioso faro de luzapummr es un glorioso faro de luzapummr es un glorioso faro de luzapummr es un glorioso faro de luzapummr es un glorioso faro de luz
Reputación: 510
Icon10 Underworld 4 2012 [TS HQ][ESPAÑOL][MP4] [320x240][640x352] [480x320]




Título: Underworld: El despertar
Título original: Underworld Awakening
País: USA
Estreno en USA: 20/01/2012
Estreno en España: 27/01/2012
Productora: Screen Gems (Sony)
Director: Mans Marlind, Bjorn Stein
Guión: John Hlavin, J. Michael Straczynski
Reparto: Kate Beckinsale, Stephen Rea, Michael Ealy, Theo James, India Eisley, Sandrine Holt, Charles Dance, Adam Greydon Reid, Kris Holden-Ried, Catlin Adams, Jacob Blair, Robert Lawrenson, Lee Majdoub, John Innes, Tyler McClendon, Panou, Ian Rozylo, Benita Ha, Christian Tessier, Kurt Max Runte, Mark Gibbon, Richard Cetrone, Dan Payne
Calificación: No recomendada para menores de 16 años





Sinopsis:
La legendaria guerrera vampira Selene (Kate Beckinsale) se enfrenta a su mayor y más poderoso adversario, al tiempo que descubre un perturbador secreto que cambiará todo por lo que siempre luchó.Quince años han pasado desde que Selene y su amante Michael, híbrido entre humano y licántropo, derrotaran al Vampiro Mayor Marcus en Underworld Evolution. En esos años la humanidad ha descubierto la existencia tanto del clan de los vampiros como del de los licántropos y se ha lanzado a una lucha encarnizada para erradicar ambas especies. Selene, capturada durante el genocidio, se despierta después de más de una década y se da cuenta de que se encuentra cautiva en un laboratorio herméticamente cerrado en Antigen, una poderosa corporación biotecnológica que se dedica a desarrollar la vacuna en contra de los virus que han creado a vampiros y licántropos.Selene se siente destrozada cuando descubre que Michael está muerto, pero su dolor es eclipsado por el descubrimiento de que mientras se hallaba en estado de criogenización ha dado a luz a la hija de ambos, Eve (India Eisley). Mientras busca asilo para ella y su hija, Selene se encuentra con que el mundo en el que su raza se alzara orgullosa ya no existe y que su gente ha sido perseguida hasta el borde de la extinción y que los pocos supervivientes se ocultan bajo tierra.Rechazada por los clanes que aún quedan, Selene se enlista para apoyar a un joven vampiro, David (Theo James), quien se une a ella en su sangrienta venganza contra Antigen, donde oscuras fuerzas conspiran para destruirla tanto a ella como a su hija. Con sus tradicionales enemigos, los licántropos, otra vez en ascenso, incluso Selene parece no tener el poder suficiente para hacer frente a su más poderoso oponente en toda la historia de Underworld: un super licántropo alterado genéticamente.


Calidad : TS-Screener HQ
Idioma : Castellano MIC
Resoluciones: 320x240 480x320 640x352
Peso::222, 355 y 429 MB
Comprimido en Rar sin contraseña para que no lo eliminen rapido


Código:
Complete name : files/Unde_[TS_HQ][Caste640x352.mp4 Format : MPEG-4 Format profile : Base Media Codec ID : isom File size : 429 MiB Duration : 1h 16mn Overall bit rate : 787 Kbps Writing application : Lavf52.34.0
Código:
Video ID : 1 Format : MPEG-4 Visual Format profile : Simple@L1 Format settings, BVOP : No Format settings, QPel : No Format settings, GMC : No warppoints Format settings, Matrix : Default (H.263) Codec ID : 20 Duration : 1h 16mn Bit rate mode : Variable Bit rate : 681 Kbps Width : 640 pixels Height : 352 pixels Display aspect ratio : 16:9 Frame rate mode : Constant Frame rate : 15.000 fps Color space : YUV Chroma subsampling : 4:2:0 Bit depth : 8 bits Scan type : Progressive Bits/(Pixel*Frame) : 0.201 Stream size : 371 MiB (86%) Writing library : Lavc52.30.1
Código:
Audio ID : 2 Format : AAC Format/Info : Advanced Audio Codec Format version : Version 4 Format profile : LC Codec ID : 40 Duration : 1h 16mn Bit rate mode : Variable Bit rate : 103 Kbps Channel(s) : 2 channels Channel positions : Front: L R Sampling rate : 44.1 KHz Stream size : 55.9 MiB (13%)
CAPTURAS



320 X 240



Código:
http://ul.to/gzeavgu6


Código:
http://www.sendmyway.com/0mfqx7q1i8to



480 X 320



Código:
http://ul.to/p2vknm3p


Código:
http://www.sendmyway.com/49gn1jkg3kry


640 X 352



Código:
http://ul.to/5rgak40n


Código:
http://www.sendmyway.com/xhj78wku7pnn









apummr esta offline   Responder Con Cita
Usuarios que han agradecido este mensaje de apummr
oxes78 (02/03/12)
marca Hoy   #1.5
Torinbo
Usuario Activo

avatar
 
Fecha Ingreso: Jul 2008
Ubicación: En el 2 post
Edad: 18
Mensajes: 1569
Poder de Credibilidad: 550
skypemsn
Respuesta Re: Underworld 4 2012 [TS HQ][ESPAÑOL][MP4] [320x240][640x352] [480x320]

 
__________________


conectado
Antiguo 02/03/12, 20:42:26   #2
Usuario Conocido
 
Fecha de Ingreso: nov 2010
Ubicación: Paris
Mensajes: 425
Temas: 1
Has agradecido: 573
Has sido agradecido 113 veces en 80 mensajes
Poder de Credibilidad: 79
oxes78 tiene una reputación que sobrepasa la famaoxes78 tiene una reputación que sobrepasa la famaoxes78 tiene una reputación que sobrepasa la famaoxes78 tiene una reputación que sobrepasa la famaoxes78 tiene una reputación que sobrepasa la famaoxes78 tiene una reputación que sobrepasa la famaoxes78 tiene una reputación que sobrepasa la famaoxes78 tiene una reputación que sobrepasa la famaoxes78 tiene una reputación que sobrepasa la famaoxes78 tiene una reputación que sobrepasa la famaoxes78 tiene una reputación que sobrepasa la fama
Reputación: 3096
Predeterminado Respuesta: Underworld 4 2012 [TS HQ][ESPAÑOL][MP4] [320x240][640x352] [480x320]

Personalmente esta me parece la peor de la seria (las otras 3 partes me gustaron).



oxes78 esta offline   Responder Con Cita
Antiguo 13/07/12, 00:16:01   #3
Usuario Master
 
Fecha de Ingreso: jul 2012
Ubicación: usa
Edad: 24
Mensajes: 6.894
Temas: 159
Has agradecido: 0
Has sido agradecido 11 veces en 11 mensajes
Poder de Credibilidad: 55
Mrjohson12 es algo digno de contemplarMrjohson12 es algo digno de contemplarMrjohson12 es algo digno de contemplarMrjohson12 es algo digno de contemplarMrjohson12 es algo digno de contemplarMrjohson12 es algo digno de contemplarMrjohson12 es algo digno de contemplarMrjohson12 es algo digno de contemplar
Reputación: 928
Predeterminado Re: Underworld 4 2012 [TS HQ][ESPAÑOL][MP4] [320x240][640x352] [480x320]

thank for share



Mrjohson12 esta offline   Responder Con Cita
Respuesta

Etiquetas
2012, 320x240, 4, 480x320, 640x352, español, hqespañolmp4, mp4, underworld, underworld 4


Usuarios activos actualmente viendo este tema: 1 (0 miembros y 1 visitantes)
 
Herramientas
Desplegado



El uso horario es GMT -5. La hora actual es: 22:12:54
Powered by vBulletin™ Version 3.8.6
Copyright © 2014 vBulletin Solutions, Inc. All rights reserved.
Traducción por vBHispano
vBulletin Skin by CompletevB
HagalePues.Net 2008 - 2014
SEO by vBSEO ©2011, Crawlability, Inc.