Underworld 4: El despertar 2012 [CAM][Sub Español] [MP4] - Hagale Pues
Header Hágale Pues
Retroceder   Hagale Pues » Foros de conversación » Zona audiovisual
Portal Foro Temas de Hoy Registrarse Buscar




Underworld 4: El despertar 2012 [CAM][Sub Español] [MP4]



Respuesta
Herramientas
Antiguo 26/01/12, 14:02:04   #1
Usuario Nuevo
 
Fecha de Ingreso: dic 2010
Ubicación: argentina
Mensajes: 21
Temas: 10
Has agradecido: 0
Has sido agradecido 9 veces en 6 mensajes
Poder de Credibilidad: 0
apummr es un glorioso faro de luzapummr es un glorioso faro de luzapummr es un glorioso faro de luzapummr es un glorioso faro de luzapummr es un glorioso faro de luzapummr es un glorioso faro de luz
Reputación: 510
Predeterminado Underworld 4: El despertar 2012 [CAM][Sub Español] [MP4]



Después de haber estado en un estado similar al coma durante quince años, la vampiro Selene (Kate Beckinsale) descubre que tiene una hija de catorce años mitad vampiro, mitad licántropo llamada Nissa. Cuando ella la encuentre deberá detener a Biocom en su intento por crear una raza de Super-Licántropos que quieren acabar con ellas…

=>Ficha Tecnica:
Titulo Hispano: Inframundo 4: El Despertar
GENERO: Terror, Fantasía
TEMÁTICA: Venganza, 3-D, Licantropía, Vampirismo
PAIS: Estados Unidos
DURACION: 88 Minutos
AÑO: 2012
PESO: 265
CALIDAD: CAM
FORMATO:MP4
RESOLUCION : 320X240



Código:
Complete name : files/In4.suapummr.mp4 
Format : MPEG-4 
Format profile : Base Media 
Codec ID : isom 
File size : 266 MiB 
Duration : 1h 16mn 
Overall bit rate : 488 Kbps 
Writing application : Lavf52.34.0
Código:
Video 
ID : 1 
Format : MPEG-4 Visual 
Format profile : Simple@L1 
Format settings, BVOP : No 
Format settings, QPel : No 
Format settings, GMC : No warppoints 
Format settings, Matrix : Default (H.263) 
Codec ID : 20 
Duration : 1h 16mn 
Bit rate mode : Variable 
Bit rate : 332 Kbps 
Width : 320 pixels 
Height : 240 pixels 
Display aspect ratio : 16:9 
Frame rate mode : Constant 
Frame rate : 15.000 fps 
Color space : YUV 
Chroma subsampling : 4:2:0 
Bit depth : 8 bits 
Scan type : Progressive 
Bits/(Pixel*Frame) : 0.288 
Stream size : 181 MiB (68%) 
Writing library : Lavc52.30.1
Código:
Audio 
ID : 2 
Format : AAC 
Format/Info : Advanced Audio Codec 
Format version : Version 4 
Format profile : LC 
Codec ID : 40 
Duration : 1h 16mn 
Bit rate mode : Variable 
Bit rate : 152 Kbps 
Channel(s) : 2 channels 
Channel positions : Front: L R 
Sampling rate : 44.1 KHz 
Stream size : 82.8 MiB (31%)





http://ul.to/ljcvp29c



http://www.sendmyway.com/2ve75bqsd72v






apummr esta offline   Responder Con Cita
marca Hoy   #1.5
Torinbo
Usuario Activo

avatar
 
Fecha Ingreso: Jul 2008
Ubicación: En el 2 post
Edad: 18
Mensajes: 1569
Poder de Credibilidad: 550
skypemsn
Respuesta Re: Underworld 4: El despertar 2012 [CAM][Sub Español] [MP4]

 
__________________


conectado
Respuesta

Etiquetas
2012, 4, camsub, despertar, el, el despertar, español, mp4, underworld, underworld 4


Usuarios activos actualmente viendo este tema: 1 (0 miembros y 1 visitantes)
 
Herramientas
Desplegado



El uso horario es GMT -5. La hora actual es: 01:36:41
Powered by vBulletin™ Version 3.8.6
Copyright © 2014 vBulletin Solutions, Inc. All rights reserved.
Traducción por vBHispano
vBulletin Skin by CompletevB
HagalePues.Net 2008 - 2014
SEO by vBSEO ©2011, Crawlability, Inc.


BidVertiser