El Planeta de los Simios - (1968)(Hd-Rip)(Dual:Castellano/Ing)(Cien.Fic)[WU] - Hagale Pues
Header Hágale Pues
Retroceder   Hagale Pues » Foros de conversación » Zona xXx » Videos xXx
Portal Foro Temas de Hoy Registrarse Buscar




El Planeta de los Simios - (1968)(Hd-Rip)(Dual:Castellano/Ing)(Cien.Fic)[WU]


­
Respuesta
Herramientas
Antiguo 31/07/11, 12:38:54   #1
Baneado
 
Fecha de Ingreso: mar 2011
Ubicación: españa
Edad: 29
Mensajes: 3.550
Temas: 583
Has agradecido: 0
Has sido agradecido 40 veces en 38 mensajes
Poder de Credibilidad: 0
evilsega tiene motivos para estar orgullosoevilsega tiene motivos para estar orgullosoevilsega tiene motivos para estar orgullosoevilsega tiene motivos para estar orgullosoevilsega tiene motivos para estar orgullosoevilsega tiene motivos para estar orgullosoevilsega tiene motivos para estar orgullosoevilsega tiene motivos para estar orgullosoevilsega tiene motivos para estar orgullosoevilsega tiene motivos para estar orgulloso
Reputación: 1385
Predeterminado El Planeta de los Simios - (1968)(Hd-Rip)(Dual:Castellano/Ing)(Cien.Fic)[WU]







TÍTULO ORIGINAL The Planet of the Apes
AÑO 1968
DURACIÓN 112 min.
PAÍS Estados Unidos]
DIRECTOR Franklin J. Schaffner
GUIÓN Michael Wilson & Rod Serling (Novela: Pierre Boulle)
MÚSICA Jerry Goldsmith
FOTOGRAFÍA Leon Shamroy
REPARTO Charlton Heston, Roddy McDowall, Kim Hunter, Maurice Evans, James Whitmore, James Daly, Linda Harrison
PRODUCTORA 20th Century Fox
PREMIOS 1968: 2 nominaciones al Oscar: Mejor vestuario, bso
GÉNERO Ciencia ficción. Fantástico. Aventuras | Aventura espacial. Simios





George Taylor forma parte de una tripulación de astronautas a bordo de una nave espacial -en una misión de larga duración- que se estrella en un planeta desconocido y aparentemente carente de vida inteligente. Sin embargo pronto se da cuenta de que el lugar está gobernado por una raza de simios inteligentes que esclavizan a los seres humanos, que carecen de la facultad del habla. Cuando su líder, el doctor Zaius, descubre con horror la facultad de hablar de Taylor, decide que lo mejor es exterminarlo.




Media Info:

General
Complete name : G:\evilsega\EPDLS Evilsega.avi
Format : AVI
Format/Info : Audio Video Interleave
Format profile : OpenDML
File size : 2.69 GiB
Duration : 1h 52mn
Overall bit rate : 3 432 Kbps
Writing application : VirtualDubMod 1.5.10.2 (build 2542/release)
Writing library : VirtualDubMod build 2542/release

Video
ID : 0
Format : MPEG-4 Visual
Format profile : Advanced Simple@L5
Format settings, BVOP : 2
Format settings, QPel : No
Format settings, GMC : No warppoints
Format settings, Matrix : Default (H.263)
Codec ID : XVID
Codec ID/Hint : XviD
Duration : 1h 52mn
Bit rate : 2 520 Kbps
Width : 720 pixels
Height : 304 pixels
Display aspect ratio : 2.35:1
Frame rate : 23.976 fps
Color space : YUV
Chroma subsampling : 4:2:0
Bit depth : 8 bits
Scan type : Progressive
Compression mode : Lossy
Bits/(Pixel*Frame) : 0.480
Stream size : 1.97 GiB (73%)
Writing library : XviD 1.1.2 (UTC 2006-11-01)

Audio #1
ID : 1
Format : AC-3
Format/Info : Audio Coding 3
Mode extension : CM (complete main)
Codec ID : 2000
Duration : 1h 52mn
Bit rate mode : Constant
Bit rate : 448 Kbps
Channel(s) : 6 channels
Channel positions : Front: L C R, Side: L R, LFE
Sampling rate : 48.0 KHz
Bit depth : 16 bits
Compression mode : Lossy
Stream size : 359 MiB (13%)
Alignment : Split accross interleaves
Interleave, duration : 42 ms (1.00 video frame)
Interleave, preload duration : 500 ms

Audio #2
ID : 2
Format : AC-3
Format/Info : Audio Coding 3
Mode extension : CM (complete main)
Codec ID : 2000
Duration : 1h 52mn
Bit rate mode : Constant
Bit rate : 448 Kbps
Channel(s) : 6 channels
Channel positions : Front: L C R, Side: L R, LFE
Sampling rate : 48.0 KHz
Bit depth : 16 bits
Compression mode : Lossy
Stream size : 359 MiB (13%)
Alignment : Split accross interleaves
Interleave, duration : 42 ms (1.00 video frame)
Interleave, preload duration : 500 ms












http://www.wupload.com/file/71517387
http://www.wupload.com/file/71516333
http://www.wupload.com/file/71516292
http://www.wupload.com/file/71515872








evilsega esta offline   Responder Con Cita
Respuesta

Etiquetas
de, el, los, planeta, simios


Usuarios activos actualmente viendo este tema: 1 (0 miembros y 1 visitantes)
 
Herramientas
Desplegado



El uso horario es GMT -5. La hora actual es: 04:28:58
Powered by vBulletin™ Version 3.8.6
Copyright © 2014 vBulletin Solutions, Inc. All rights reserved.
Traducción por vBHispano
vBulletin Skin by CompletevB
HagalePues.Net 2008 - 2014
SEO by vBSEO ©2011, Crawlability, Inc.