Nunca Me Abandones [2010][HDRip][Castellano][Drama][WU] - Hagale Pues
Header Hágale Pues
Retroceder   Hagale Pues » Foros de conversación » Zona xXx » Videos xXx
Portal Foro Temas de Hoy Registrarse Buscar




Nunca Me Abandones [2010][HDRip][Castellano][Drama][WU]


­
Respuesta
Herramientas
Antiguo 24/07/11, 07:14:09   #1
Baneado
 
Fecha de Ingreso: mar 2011
Ubicación: españa
Edad: 29
Mensajes: 3.550
Temas: 3539
Has agradecido: 0
Has sido agradecido 39 veces en 37 mensajes
Poder de Credibilidad: 0
evilsega tiene motivos para estar orgullosoevilsega tiene motivos para estar orgullosoevilsega tiene motivos para estar orgullosoevilsega tiene motivos para estar orgullosoevilsega tiene motivos para estar orgullosoevilsega tiene motivos para estar orgullosoevilsega tiene motivos para estar orgullosoevilsega tiene motivos para estar orgullosoevilsega tiene motivos para estar orgullosoevilsega tiene motivos para estar orgulloso
Reputación: 1360
Predeterminado Nunca Me Abandones [2010][HDRip][Castellano][Drama][WU]







Título: Nunca me abandones
Título original: Never Let Me Go
País: USA, Reino Unido
Estreno en USA: 17/09/2010
Estreno en España: 18/03/2011
Lanzamiento en DVD (alquiler): 13/07/2011
Estreno en Blu-ray: 13/07/2011
Productora: Fox Searchlight Pictures
Director: Mark Romanek
Guión: Alex Garland
Reparto: Keira Knightley, Carey Mulligan, Andrew Garfield, Charlotte Rampling, Sally Hawkins, Nathalie Richard, Andrea Riseborough, Domhnall Gleeson, Isobel Meikle-Small, Ella Purnell, Charlie Rowe
Calificación: No recomendada para menores de 7 años

Sinopsis: Kathy (Carey Mulligan), Tommy (Andrew Garfield) y Ruth (Keira Knightley) pasan su infancia en Hailsham, un internado inglés aparentemente idílico donde descubren un tenebroso e inquietante secreto acerca de su futuro. Cuando dejan atrás el refugio que les brinda del colegio y se aproximan al devastador destino que los aguarda en su edad adulta, tienen también que hacer frente a los profundos sentimientos del amor, los celos y la traición que amenazan con separarlos.




Media Info:

General
Complete name : G:\evilsega\nunhd.evilsega.avi
Format : AVI
Format/Info : Audio Video Interleave
Format profile : OpenDML
File size : 2.00 GiB
Duration : 1h 43mn
Overall bit rate : 2 765 Kbps
Writing application : VirtualDubMod 1.6.0.0 SURROUND (build 2560/release)
Writing library : VirtualDubMod build 2560/release

Video
ID : 0
Format : MPEG-4 Visual
Format profile : Advanced Simple@L5
Format settings, BVOP : 2
Format settings, QPel : Yes
Format settings, GMC : No warppoints
Format settings, Matrix : Default (H.263)
Muxing mode : Packed bitstream
Codec ID : XVID
Codec ID/Hint : XviD
Duration : 1h 43mn
Bit rate : 2 112 Kbps
Width : 720 pixels
Height : 304 pixels
Display aspect ratio : 2.35:1
Frame rate : 23.976 fps
Color space : YUV
Chroma subsampling : 4:2:0
Bit depth : 8 bits
Scan type : Progressive
Compression mode : Lossy
Bits/(Pixel*Frame) : 0.402
Stream size : 1.53 GiB (76%)
Writing library : XviD 1.2.1 (UTC 2008-12-04)

Audio
ID : 1
Format : AC-3
Format/Info : Audio Coding 3
Mode extension : CM (complete main)
Codec ID : 2000
Duration : 1h 43mn
Bit rate mode : Constant
Bit rate : 640 Kbps
Channel(s) : 6 channels
Channel positions : Front: L C R, Side: L R, LFE
Sampling rate : 48.0 KHz
Bit depth : 16 bits
Compression mode : Lossy
Delay relative to video : 2s 0ms
Stream size : 475 MiB (23%)
Alignment : Split accross interleaves
Interleave, duration : 42 ms (1.00 video frame)
Interleave, preload duration : 500 ms












http://www.wupload.com/file/65570103
http://www.wupload.com/file/65570088
http://www.wupload.com/file/65569841
http://www.wupload.com/file/65569633







evilsega esta offline   Responder Con Cita
Respuesta

Etiquetas
2010hdripcastellanodramawu, abandones, nunca


Usuarios activos actualmente viendo este tema: 1 (0 miembros y 1 visitantes)
 
Herramientas
Desplegado



El uso horario es GMT -5. La hora actual es: 00:35:12
Powered by vBulletin™ Version 3.8.6
Copyright © 2014 vBulletin Solutions, Inc. All rights reserved.
Traducción por vBHispano
vBulletin Skin by CompletevB
HagalePues.Net 2008 - 2014
SEO by vBSEO ©2011, Crawlability, Inc.