Astérix y Obélix: Misión Cleopatra (2002)(Hd-Rip)(Castellano)(Comedia)[wu-fp] - Hagale Pues
Header Hágale Pues
Retroceder   Hagale Pues » Foros de conversación » Zona xXx » Videos xXx
Portal Foro Temas de Hoy Registrarse Buscar




Astérix y Obélix: Misión Cleopatra (2002)(Hd-Rip)(Castellano)(Comedia)[wu-fp]


­
Respuesta
Herramientas
Antiguo 02/11/11, 17:21:08   #1
Baneado
 
Fecha de Ingreso: mar 2011
Ubicación: españa
Edad: 29
Mensajes: 3.550
Temas: 583
Has agradecido: 0
Has sido agradecido 40 veces en 38 mensajes
Poder de Credibilidad: 0
evilsega tiene motivos para estar orgullosoevilsega tiene motivos para estar orgullosoevilsega tiene motivos para estar orgullosoevilsega tiene motivos para estar orgullosoevilsega tiene motivos para estar orgullosoevilsega tiene motivos para estar orgullosoevilsega tiene motivos para estar orgullosoevilsega tiene motivos para estar orgullosoevilsega tiene motivos para estar orgullosoevilsega tiene motivos para estar orgulloso
Reputación: 1385
Predeterminado Astérix y Obélix: Misión Cleopatra (2002)(Hd-Rip)(Castellano)(Comedia)[wu-fp]






TÍTULO ORIGINAL Asterix & Obelix: Mission Cleopatre
AÑO
2002
DURACIÓN
107 min. Trailers/Vídeos
PAÍS
[Francia]
DIRECTOR Alain Chabat
GUIÓN Alain Chabat
MÚSICA Philippe Chany
FOTOGRAFÍA Laurent Dailland
REPARTO Gérard Depardieu, Christian Clavier, Monica Bellucci, Alain Chabat, Edouard Baer, Gérard Darmon, Claude Rich, Jamel Debbouze
PRODUCTORA Katharina / Renn Productions / TF1 Films
GÉNERO Comedia. Aventuras. Infantil | Antiguo Egipto. Cómic. Cine familiar
SINOPSIS En el año 52 antes de Cristo, Egipto, gobernado por la poderosa Cleopatra, ha caído bajo el yugo del Imperio Romano. Y lo peor es que Cleopatra ha decidido entregar su corazón a Julio César, emperador del pueblo más grande del mundo. Harta de los sarcasmos de César, la orgullosa y bella reina hace una apuesta con él: si consigue construir un castillo para él en el espacio de tres meses, en medio del desierto, él reconocerá que el pueblo egipcio es el más grande de todos. Cleopatra confía la misión a Numerobis, un emergente arquitecto vanguardista al que cubrirá de oro si triunfa o arrojará a los cocodrilos si fracasa. Numerobis necesita un milagro para llevar a cabo el proyecto, y el milagro se llama Astérix y Obélix. (FILMAFFINITY)








Media Info:

Código:
General
Complete name                            : D:\asterix y obelix mision cleopatra Evilsega.avi
Format                                   : AVI
Format/Info                              : Audio Video Interleave
File size                                : 2.85 GiB
Duration                                 : 1h 43mn
Overall bit rate                         : 3 941 Kbps

Video
ID                                       : 0
Format                                   : MPEG-4 Visual
Format profile                           : Simple@L3
Format settings, BVOP                    : No
Format settings, QPel                    : No
Format settings, GMC                     : No warppoints
Format settings, Matrix                  : Default (H.263)
Codec ID                                 : XVID
Codec ID/Hint                            : XviD
Duration                                 : 1h 43mn
Bit rate                                 : 3 610 Kbps
Width                                    : 720 pixels
Height                                   : 320 pixels
Display aspect ratio                     : 2.25:1
Frame rate                               : 25.000 fps
Color space                              : YUV
Chroma subsampling                       : 4:2:0
Bit depth                                : 8 bits
Scan type                                : Progressive
Compression mode                         : Lossy
Bits/(Pixel*Frame)                       : 0.627
Stream size                              : 2.61 GiB (92%)
Writing library                          : XviD 1.1.2 (UTC 2006-11-01)

Audio
ID                                       : 1
Format                                   : AC-3
Format/Info                              : Audio Coding 3
Mode extension                           : CM (complete main)
Codec ID                                 : 2000
Duration                                 : 1h 43mn
Bit rate mode                            : Constant
Bit rate                                 : 320 Kbps
Channel(s)                               : 6 channels
Channel positions                        : Front: L C R, Side: L R, LFE
Sampling rate                            : 48.0 KHz
Bit depth                                : 16 bits
Compression mode                         : Lossy
Stream size                              : 237 MiB (8%)
Alignment                                : Aligned on interleaves
Interleave, duration                     : 32 ms (0.80 video frame)












http://www.wupload.com/file/1848992081/asterix y obelix mision cleopatra Evilsega.part2.rar
http://www.wupload.com/file/1848992191/asterix y obelix mision cleopatra Evilsega.part4.rar
http://www.wupload.com/file/1848990136/asterix y obelix mision cleopatra Evilsega.part3.rar
http://www.wupload.com/file/1848987256/asterix y obelix mision cleopatra Evilsega.part5.rar
http://www.wupload.com/file/1848987596/asterix y obelix mision cleopatra Evilsega.part1.rar








http://filepost.com/files/2f286e52/asterix y obelix mision cleopatra Evilsega.part1.rar/
http://filepost.com/files/9919624m/asterix y obelix mision cleopatra Evilsega.part2.rar/
http://filepost.com/files/28127acc/asterix y obelix mision cleopatra Evilsega.part3.rar/
http://filepost.com/files/2aa152b8/asterix y obelix mision cleopatra Evilsega.part4.rar/
http://filepost.com/files/7692dac3/asterix y obelix mision cleopatra Evilsega.part5.rar/




Enlaces caidos? Alguna duda? algun error? Mandame Mp ñ_ñ




evilsega esta offline   Responder Con Cita
Respuesta

Etiquetas
2002hdripcastellanocomediawufp, asterix, cleopatra, misión, obelix


Usuarios activos actualmente viendo este tema: 1 (0 miembros y 1 visitantes)
 
Herramientas
Desplegado



El uso horario es GMT -5. La hora actual es: 06:40:31
Powered by vBulletin™ Version 3.8.6
Copyright © 2014 vBulletin Solutions, Inc. All rights reserved.
Traducción por vBHispano
vBulletin Skin by CompletevB
HagalePues.Net 2008 - 2014
SEO by vBSEO ©2011, Crawlability, Inc.