CINDERELLA MAN (2005)(Hd-Rip)(Castellano)[Wu-fls-Fp] - Hagale Pues
Header Hágale Pues
Retroceder   Hagale Pues » Foros de conversación » Zona xXx » Videos xXx
Portal Foro Temas de Hoy Registrarse Buscar




CINDERELLA MAN (2005)(Hd-Rip)(Castellano)[Wu-fls-Fp]


­
Respuesta
Herramientas
Antiguo 04/10/11, 13:54:25   #1
Baneado
 
Fecha de Ingreso: mar 2011
Ubicación: españa
Edad: 29
Mensajes: 3.550
Temas: 583
Has agradecido: 0
Has sido agradecido 40 veces en 38 mensajes
Poder de Credibilidad: 0
evilsega tiene motivos para estar orgullosoevilsega tiene motivos para estar orgullosoevilsega tiene motivos para estar orgullosoevilsega tiene motivos para estar orgullosoevilsega tiene motivos para estar orgullosoevilsega tiene motivos para estar orgullosoevilsega tiene motivos para estar orgullosoevilsega tiene motivos para estar orgullosoevilsega tiene motivos para estar orgullosoevilsega tiene motivos para estar orgulloso
Reputación: 1385
Predeterminado CINDERELLA MAN (2005)(Hd-Rip)(Castellano)[Wu-fls-Fp]






TÍTULO ORIGINAL Cinderella Man
AÑO
2005 Ver trailer externo
DURACIÓN
144 min. Trailers/Vídeos
PAÍS
[Estados Unidos] Sección visual
DIRECTOR Ron Howard
GUIÓN Cliff Hollingsworth, Akiva Goldsman (Historia: Cliff Hollingsworth)
MÚSICA Thomas Newman
FOTOGRAFÍA Salvatore Totino
REPARTO Russell Crowe, Renée Zellweger, Paul Giamatti, Paddy Considine, Bruce McGill, Connor Price, Craig Bierko, David Huband, Ariel Waller, Rosemarie DeWitt
PRODUCTORA Universal Pictures / Miramax Films / Touchstone Pictures / Imagine Entertainment
WEB OFICIAL http://www.cinderellamanmovie.com
PREMIOS 2005: 3 Nominaciones al Oscar: Mejor actor sec. (Giamatti), montaje, maquillaje
2005: 2 nominaciones al Globo de Oro: Actor drama (Crowe), actor sec. (Giamatti)
2005: Nominada BAFTA: Mejor guión
2005: Festival de Toronto: Mejor actor de reparto (Paul Giamatti)
GÉNERO Drama | Deporte. Boxeo. Pobreza. Gran Depresión. Basado en hechos reales
SINOPSIS Basada en una historia real. Después de haberse retirado del boxeo, James J. Braddock decidió volver al cuadrilátero durante los años de la Gran Depresión para poder alimentar a su familia. No era un boxeador con talento, pero su coraje, sacrificio y dignidad lo llevaron hasta la cumbre. Pese a ser una historia de superación personal que obtuvo excelentes críticas en Estados Unidos, ni eso ni el hecho de estar protagonizada por Russell Crowe fue suficiente para triunfar en taquilla (sus resultados fueron muy discretos). (FILMAFFINITY)








Código:
General
Complete name                            : D:\Cinderella Man.HDRip Evilsega.avi
Format                                   : AVI
Format/Info                              : Audio Video Interleave
Format profile                           : OpenDML
File size                                : 2.39 GiB
Duration                                 : 2h 18mn
Overall bit rate                         : 2 477 Kbps
Writing application                      : VirtualDubMod 1.5.10.2 (build 2540/release)
Writing library                          : VirtualDubMod build 2540/release

Video
ID                                       : 0
Format                                   : MPEG-4 Visual
Format profile                           : Advanced Simple@L5
Format settings, BVOP                    : 2
Format settings, QPel                    : No
Format settings, GMC                     : No warppoints
Format settings, Matrix                  : Default (H.263)
Codec ID                                 : XVID
Codec ID/Hint                            : XviD
Duration                                 : 2h 18mn
Bit rate                                 : 2 082 Kbps
Width                                    : 720 pixels
Height                                   : 304 pixels
Display aspect ratio                     : 2.35:1
Frame rate                               : 23.976 fps
Color space                              : YUV
Chroma subsampling                       : 4:2:0
Bit depth                                : 8 bits
Scan type                                : Progressive
Compression mode                         : Lossy
Bits/(Pixel*Frame)                       : 0.397
Stream size                              : 2.01 GiB (84%)
Writing library                          : XviD 1.1.2 (UTC 2006-11-01)

Audio
ID                                       : 1
Format                                   : AC-3
Format/Info                              : Audio Coding 3
Mode extension                           : CM (complete main)
Codec ID                                 : 2000
Duration                                 : 2h 18mn
Bit rate mode                            : Constant
Bit rate                                 : 384 Kbps
Channel(s)                               : 6 channels
Channel positions                        : Front: L C R, Side: L R, LFE
Sampling rate                            : 48.0 KHz
Bit depth                                : 16 bits
Compression mode                         : Lossy
Stream size                              : 380 MiB (15%)
Alignment                                : Split accross interleaves
Interleave, duration                     : 42 ms (1.00 video frame)
Interleave, preload duration             : 500 ms












http://www.wupload.com/file/298153635/Cinderella Man.HDRip Evilsega.part3.rar
http://www.wupload.com/file/298153640/Cinderella Man.HDRip Evilsega.part4.rar
http://www.wupload.com/file/298153282/Cinderella Man.HDRip Evilsega.part2.rar
http://www.wupload.com/file/298153135/Cinderella Man.HDRip Evilsega.part1.rar






http://filepost.com/files/ba641b22/Cinderella Man.HDRip Evilsega.part1.rar/
http://filepost.com/files/48a62cb3/Cinderella Man.HDRip Evilsega.part2.rar/
http://filepost.com/files/ee943ab8/Cinderella Man.HDRip Evilsega.part3.rar/
http://filepost.com/files/mc326767/Cinderella Man.HDRip Evilsega.part4.rar/






http://www.filesonic.com/file/2311091281/Cinderella Man.HDRip Evilsega.part1.rar
http://www.filesonic.com/file/2311091411/Cinderella Man.HDRip Evilsega.part4.rar
http://www.filesonic.com/file/2311087911/Cinderella Man.HDRip Evilsega.part3.rar
http://www.filesonic.com/file/2311086081/Cinderella Man.HDRip Evilsega.part2.rar







evilsega esta offline   Responder Con Cita
marca Hoy   #1.5
Torinbo
Usuario Activo

avatar
 
Fecha Ingreso: Jul 2008
Ubicación: En el 2 post
Edad: 18
Mensajes: 1569
Poder de Credibilidad: 550
skypemsn
Respuesta Re: CINDERELLA MAN (2005)(Hd-Rip)(Castellano)[Wu-fls-Fp]

 
__________________


conectado
Respuesta

Etiquetas
2005hdripcastellanowuflsfp, cinderella, man


Usuarios activos actualmente viendo este tema: 1 (0 miembros y 1 visitantes)
 
Herramientas
Desplegado



El uso horario es GMT -5. La hora actual es: 00:40:24
Powered by vBulletin™ Version 3.8.6
Copyright © 2014 vBulletin Solutions, Inc. All rights reserved.
Traducción por vBHispano
vBulletin Skin by CompletevB
HagalePues.Net 2008 - 2014
SEO by vBSEO ©2011, Crawlability, Inc.