Barbie: Una Navidad Perfecta [DVDRip][Castellano AC3 5.1][Animacion](2011) - Hagale Pues
Header Hágale Pues
Retroceder   Hagale Pues » Foros de conversación » Música General » Otros Generos
Portal Foro Temas de Hoy Registrarse Buscar




Barbie: Una Navidad Perfecta [DVDRip][Castellano AC3 5.1][Animacion](2011)



Respuesta
Herramientas
Antiguo 13/12/11, 15:26:36   #1
Baneado
 
Fecha de Ingreso: mar 2011
Ubicación: españa
Edad: 29
Mensajes: 3.550
Temas: 583
Has agradecido: 0
Has sido agradecido 40 veces en 38 mensajes
Poder de Credibilidad: 0
evilsega tiene motivos para estar orgullosoevilsega tiene motivos para estar orgullosoevilsega tiene motivos para estar orgullosoevilsega tiene motivos para estar orgullosoevilsega tiene motivos para estar orgullosoevilsega tiene motivos para estar orgullosoevilsega tiene motivos para estar orgullosoevilsega tiene motivos para estar orgullosoevilsega tiene motivos para estar orgullosoevilsega tiene motivos para estar orgulloso
Reputación: 1385
Predeterminado Barbie: Una Navidad Perfecta [DVDRip][Castellano AC3 5.1][Animacion](2011)










Título Original: Barbie: A Perfect Christmas
Otros Títulos: Barbie: Una Navidad Perfecta
Genero: Animación
Duración: 74 Minutos
País: USA
Año: 2011
Director: Mark Baldo, Terry Klassen
Guión: Elise Allen
Actores: Diana Kaarina, Jennifer Waris y Rachel Harrison
Studio: Mca (Universal)


Únete a Barbie y sus hermanas Skipper, Stacie y Chelsea cuando sus vacaciones de fin de año se convierten en la más inesperada y renconfortante de las aventuras. Después de que una tormenta de nieve desviara su avión, las chicas se verán lejos de su destino, Nueva York, así como el de sus sueños de navidad.


[spoiler]
Código:
General
Complete name                            : C:\Barbie.una.navidad.evilsega.avi
Format                                   : AVI
Format/Info                              : Audio Video Interleave
File size                                : 935 MiB
Duration                                 : 1h 10mn
Overall bit rate                         : 1 854 Kbps
Movie name                               : BARBIEPERFECTXMASG36FF1_DES.Title2.DVDRip
Writing application                      : Lavf52.78.4
Original source form/Name                : BARBIEPERFECTXMASG36FF1_DES

Video
ID                                       : 0
Format                                   : MPEG-4 Visual
Format profile                           : Advanced Simple@L5
Format settings, BVOP                    : 2
Format settings, QPel                    : No
Format settings, GMC                     : No warppoints
Format settings, Matrix                  : Default (H.263)
Muxing mode                              : Packed bitstream
Codec ID                                 : DX50
Codec ID/Hint                            : DivX 5
Duration                                 : 1h 10mn
Bit rate                                 : 1 460 Kbps
Width                                    : 720 pixels
Height                                   : 406 pixels
Display aspect ratio                     : 16:9
Frame rate                               : 25.000 fps
Color space                              : YUV
Chroma subsampling                       : 4:2:0
Bit depth                                : 8 bits
Scan type                                : Progressive
Compression mode                         : Lossy
Bits/(Pixel*Frame)                       : 0.200
Stream size                              : 736 MiB (79%)
Writing library                          : XviD 1.2.1 (UTC 2008-12-04)

Audio
ID                                       : 1
Format                                   : AC-3
Format/Info                              : Audio Coding 3
Mode extension                           : CM (complete main)
Codec ID                                 : 2000
Duration                                 : 1h 10mn
Bit rate mode                            : Constant
Bit rate                                 : 384 Kbps
Channel(s)                               : 6 channels
Channel positions                        : Front: L C R, Side: L R, LFE
Sampling rate                            : 48.0 KHz
Bit depth                                : 16 bits
Compression mode                         : Lossy
Stream size                              : 193 MiB (21%)
Alignment                                : Aligned on interleaves
Interleave, duration                     : 32 ms (0.80 video frame)
Interleave, preload duration             : 32 ms
[/spoiler]









http://ul.to/249p8fc7/Barbie.una.nav...sega.part1.rar
http://ul.to/b0jr4t19/Barbie.una.nav...sega.part2.rar




http://www.filesonic.com/file/420792...sega.part2.rar
http://www.filesonic.com/file/420792...sega.part1.rar







evilsega esta offline   Responder Con Cita
Respuesta

Etiquetas
51animacion2011, ac3, barbie, dvdripcastellano, navidad, perfecta, una


Usuarios activos actualmente viendo este tema: 1 (0 miembros y 1 visitantes)
 
Herramientas
Desplegado



El uso horario es GMT -5. La hora actual es: 13:24:48
Powered by vBulletin™ Version 3.8.6
Copyright © 2014 vBulletin Solutions, Inc. All rights reserved.
Traducción por vBHispano
vBulletin Skin by CompletevB
HagalePues.Net 2008 - 2014
SEO by vBSEO ©2011, Crawlability, Inc.