Narco Mexico - Alfombra Roja para Los Muertos [Documental][TV RIP] - Hagale Pues
Header Hágale Pues
Retroceder   Hagale Pues » Foros de conversación » Zona audiovisual » Documentales
Portal Foro Temas de Hoy Registrarse Buscar




Narco Mexico - Alfombra Roja para Los Muertos [Documental][TV RIP]



Respuesta
Herramientas
Antiguo 10/07/11, 16:30:11   #1
Usuario Novato
 
Fecha de Ingreso: jul 2011
Ubicación: Reynosa,Tamps.Mexico
Edad: 33
Mensajes: 54
Temas: 44
Has agradecido: 0
Has sido agradecido 4 veces en 3 mensajes
Poder de Credibilidad: 18
okzido es como un diamante en brutookzido es como un diamante en brutookzido es como un diamante en bruto
Reputación: 250
Militar Narco Mexico - Alfombra Roja para Los Muertos [Documental][TV RIP]



Sinopsis:
El reportaje de Jon Sistiaga analiza las claves de esa violencia estructural que lleva años sacudiendo México y que parece haberse desbordado en los últimos meses. La cámara de Cuatro entra en las prisiones mexicanas, retrata las misas negras dedicadas a la Santa Muerte, la patrona de los narcos, visita los mausoleos donde se entierra a los grandes capos o graba con crudeza una balacera entre sicarios y soldados que acabará con seis muertos. La segunda entrega del reportaje Narcoméxico está estructurada como una road movie para retratar los escenarios del conflicto.




Código:
Código:
Format: AVI
Format/Info: Audio Video Interleave
File size: 498 MiB
Duration: 49mn 55s
Overall bit rate: 1 395 Kbps
Writing library: VirtualDub-MPEG2 build 24417/release

Video

ID: 0
Format: MPEG-4 Visual
Format profile: Advanced Simple@L5
Format settings, BVOP: 2
Format settings, QPel: No
Format settings, GMC: No warppoints
Format settings, Matrix: Default (H.263)
Muxing mode: Packed bitstream
Codec ID : XVID
Codec ID/Hint: XviD
Duration: 49mn 55s
Bit rate: 1 225 Kbps
Width: 704 pixels
Height: 396 pixels
Display aspect ratio: 16:9
Frame rate: 25.000 fps
Color space: YUV
Chroma subsampling: 4:2:0
Bit depth: 8 bits
Scan type: Progressive
Compression mode: Lossy
Bits/(Pixel*Frame): 0.176
Stream size: 437 MiB (88%)
Writing library: XviD 1.1.0 (UTC 2005-11-22)

Audio

ID: 1
Format : MPEG Audio
Format version: Version 1
Format profile: Layer 3
Mode: Joint stereo
Codec ID: 55
Codec ID/Hint: MP3
Duration: 49mn 55s
Bit rate mode : Constant
Bit rate : 160 Kbps
Channel(s): 2 channels
Sampling rate: 48.0 KHz
Compression mode: Lossy
Stream size: 57.1 MiB (11%)
Alignment: Split accross interleaves
Interleave, duration: 40 ms (1.00 video frame)
Interleave, preload duration: 500 ms







Un solo link

Código:
http://www.fileserve.com/file/uMr4F2q




okzido esta offline   Responder Con Cita
Los siguientes 2 usuarios agradecen a okzido por este mensaje:
50gratis (21/07/11), pablogarcia (09/11/12)
Antiguo 21/07/11, 09:27:52   #2
Usuario Master
 
Avatar de 50gratis
 
Fecha de Ingreso: jul 2011
Ubicación: En mi casa
Edad: 32
Mensajes: 6.301
Temas: 386
Has agradecido: 19
Has sido agradecido 1.144 veces en 583 mensajes
Poder de Credibilidad: 755
50gratis tiene una reputación que sobrepasa la fama50gratis tiene una reputación que sobrepasa la fama50gratis tiene una reputación que sobrepasa la fama50gratis tiene una reputación que sobrepasa la fama50gratis tiene una reputación que sobrepasa la fama50gratis tiene una reputación que sobrepasa la fama50gratis tiene una reputación que sobrepasa la fama50gratis tiene una reputación que sobrepasa la fama50gratis tiene una reputación que sobrepasa la fama50gratis tiene una reputación que sobrepasa la fama50gratis tiene una reputación que sobrepasa la fama
Reputación: 35877
Predeterminado Respuesta: Narco Mexico - Alfombra Roja para Los Muertos [Documental][TV RIP]

Un documental un poco fuerte esi sí. Pero la realidad mexicana es también muy dura. Gracias por compartir amigo : )



50gratis esta offline   Responder Con Cita
Antiguo 01/08/11, 11:39:53   #3
Baneado
 
Fecha de Ingreso: ago 2011
Ubicación: Colombia
Mensajes: 53
Temas: 27
Has agradecido: 0
Has sido agradecido 0 veces en 0 mensajes
Poder de Credibilidad: 0
MrPepitoPerez llegará a ser famoso muy prontoMrPepitoPerez llegará a ser famoso muy pronto
Reputación: 100
Predeterminado Respuesta: Narco Mexico - Alfombra Roja para Los Muertos [Documental][TV RIP]

Excelente aporte! Gracias!!



MrPepitoPerez esta offline   Responder Con Cita
Respuesta

Etiquetas
alfombra, documental, documentaltv, los, méxico, muertos, narco, para, rip, roja, tv rip


Usuarios activos actualmente viendo este tema: 1 (0 miembros y 1 visitantes)
 
Herramientas
Desplegado



El uso horario es GMT -5. La hora actual es: 10:17:40
Powered by vBulletin™ Version 3.8.6
Copyright © 2014 vBulletin Solutions, Inc. All rights reserved.
Traducción por vBHispano
vBulletin Skin by CompletevB
HagalePues.Net 2008 - 2014
SEO by vBSEO ©2011, Crawlability, Inc.