Harry Potter Deathly Hallows Part 2 TS-IMAGINE - Hagale Pues
Header Hágale Pues
Retroceder   Hagale Pues » Foros de conversación » Basura de Hagalepues
Portal Foro Temas de Hoy Registrarse Buscar




Harry Potter Deathly Hallows Part 2 TS-IMAGINE



Respuesta
Herramientas
Antiguo 26/07/11, 16:53:48   #1
Baneado
 
Fecha de Ingreso: jun 2011
Ubicación: Mi casa
Mensajes: 735
Temas: 616
Has agradecido: 0
Has sido agradecido 14 veces en 14 mensajes
Poder de Credibilidad: 0
kibao es un glorioso faro de luzkibao es un glorioso faro de luzkibao es un glorioso faro de luzkibao es un glorioso faro de luzkibao es un glorioso faro de luz
Reputación: 477
Predeterminado Harry Potter Deathly Hallows Part 2 TS-IMAGINE




The final chapter begins as Harry, Ron, and Hermione continue their quest of finding and destroying the Dark Lord's three remaining Horcruxes, the magical items responsible for his immortality. But as the mystical Deathly Hallows are uncovered, and Voldemort finds out about their mission, the biggest battle begins and life as they know it will never be the same again.


Código:
 Harry Potter and the Deathly Hallows Part 2 2011 TS READNFO XViD - IMAGiNE
********************************************************************************************************************

Ripper ...........: IMAGiNE                                        IMDB Rating.......:8.7/10                             
Video Codec.......: XVID                                         Release Date......:15/07/11
Audio Codec.......:MP3                                           Theatre Date......:15/07/11
Audio Bitrate.....:128                                              Runtime.......:1h 56mn
Subtitles.........:NIL                                                 Language..........:ENGLISH
Resolution...... 720 x 304                                      IMDb URL..........: http://www.imdb.com/title/tt1201607/ [rate:no votes] 6,712 votes

DETAILS:

Video
ID                               : 0
Format                           : MPEG-4 Visual
Format profile                   : Advanced Simple@L5
Format settings, BVOP            : 2
Format settings, QPel            : No
Format settings, GMC             : No warppoints
Format settings, Matrix          : Default (MPEG)
Muxing mode                      : Packed bitstream
Codec ID                         : XVID
Codec ID/Hint                    : XviD
Duration                         : 1h 56mn
Bit rate                         : 1 991 Kbps
Width                            : 720 pixels
Height                           : 304 pixels
Display aspect ratio             : 2.35:1
Frame rate                       : 25.000 fps
Color space                      : YUV
Chroma subsampling               : 4:2:0
Bit depth                        : 8 bits
Scan type                        : Progressive
Compression mode                 : Lossy
Bits/(Pixel*Frame)               : 0.364
Stream size                      : 1.62 GiB (94%)
Writing library                  : XviD 64

Audio
ID                               : 1
Format                           : MPEG Audio
Format version                   : Version 1
Format profile                   : Layer 3
Codec ID                         : 55
Codec ID/Hint                    : MP3
Duration                         : 1h 56mn
Bit rate mode                    : Constant
Bit rate                         : 128 Kbps
Channel(s)                       : 2 channels
Sampling rate                    : 44.1 KHz
Compression mode                 : Lossy
Stream size                      : 107 MiB (6%)
Alignment                        : Split accross interleaves
Interleave, duration             : 40 ms (1.00 video frame)

SOURCES:

VIDEO: .............. Garri Potter i dari smerti 2chast 2011 CAMRip Thanks
AUDIO: .............. Thanx Matey

NOTES:

IMAGiNE bringing you another release..........
Harry Potter and the Deathly Hallows Part 2...........
Ok here we have Harry Potter Part 8....
The video is pretty nice,
but need to be sharpened
and have the color leveled out....
Few seconds missing here and there,
nothing important but there is
one scene jump so watch out for it
Audio is very nice LiNE
we synced filetered
and muxed to our encode......
Little out of sync between 45-54 min,
nothing to worry about...
Enjoy!









Código:
http://www.wupload.com/file/67600498




kibao esta offline   Responder Con Cita
Respuesta

Etiquetas
2, deathly, hallows, harry, part, potter, tsimagine


Usuarios activos actualmente viendo este tema: 1 (0 miembros y 1 visitantes)
 
Herramientas
Desplegado



El uso horario es GMT -5. La hora actual es: 18:24:41
Powered by vBulletin™ Version 3.8.6
Copyright © 2014 vBulletin Solutions, Inc. All rights reserved.
Traducción por vBHispano
vBulletin Skin by CompletevB
HagalePues.Net 2008 - 2014
SEO by vBSEO ©2011, Crawlability, Inc.