Kiss kiss bang bang [DVDRip Accion Español/España 2005 .Avi US] - Hagale Pues
Header Hágale Pues
Retroceder   Hagale Pues » Foros de conversación » Basura de Hagalepues
Portal Foro Temas de Hoy Registrarse Buscar




Kiss kiss bang bang [DVDRip Accion Español/España 2005 .Avi US]



Respuesta
Herramientas
Antiguo 07/06/11, 12:22:15   #1
Baneado
 
Fecha de Ingreso: ago 2010
Ubicación: En tus videos
Edad: 25
Mensajes: 1.220
Temas: 1210
Has agradecido: 1
Has sido agradecido 20 veces en 18 mensajes
Poder de Credibilidad: 0
orlando_2312 tiene motivos para estar orgullosoorlando_2312 tiene motivos para estar orgullosoorlando_2312 tiene motivos para estar orgullosoorlando_2312 tiene motivos para estar orgullosoorlando_2312 tiene motivos para estar orgullosoorlando_2312 tiene motivos para estar orgullosoorlando_2312 tiene motivos para estar orgullosoorlando_2312 tiene motivos para estar orgulloso
Reputación: 1075
Predeterminado Kiss kiss bang bang [DVDRip Accion Español/España 2005 .Avi US]





Información del archivo en el servidor
Partes: 1 GB
Servidor: US
Tamaño: 3

Sinopsis
Harry Lockhart es en esencia un tipo decente. Es cierto que es un ladrón
de poca monta que va por la vida con una mezcla no muy sólida de encanto
desfasado y optimismo inconsciente, pero quiere hacer lo correcto. La
eterna mala suerte de Harry empieza a mejorar cuando él y su socio
están haciendo algunas "compras" navideñas fuera de horas en una
tienda de juguetes de Nueva York y la alarma de seguridad acaba
con la fiesta. En su frenética huída de la policía, Harry se
ve metido sin querer en una audición para una película de
detectives de Hollywood y, en un abrir y cerrar de ojos,
el productor lo lleva en avión a Los Angeles para
hacerle una prueba. Lanzado al feroz mundo de los
profesionales, estafadores, perdedores y
aspirantes a actores de Los Ángeles, a
Harry le adjudican el duro detective
privado Perry van Shrike, también
conocido como "Gay Perry", para
que le prepare para su prueba.

Caps





Ficha Tenica

TÍTULO ORIGINAL: Kiss Kiss Bang Bang
AÑO: 2005
DURACIÓN: 102 min.
PAÍS: Estados Unidos
DIRECTOR: Shane Black
GUIÓN: Shane Black
MÚSICA: John Ottman
FOTOGRAFÍA: Michael Barrett
REPARTO: Robert Downey Jr.,
Val Kilmer, Michelle Monaghan,
Corbin Bernsen, Dash Mihok,
Larry Miller, Rockmond Dunbar,
Shannyn Sossamon
PRODUCTORA: Warner Bros. Pictures
presenta una producción Silver Pictures
WEB OFICIAL: http://kisskiss-bangbang.warnerbros.com/
GÉNERO: Thriller. Intriga. Acción | Comedia negra

Datos de ripeo

General
Complete name : files/O2312KISSKISSBANGBANGCAS.avi
Idioma: Castellano [Español de España]
Format : AVI
Format/Info : Audio Video Interleave
File size : 1 005 MiB
Duration : 1h 42mn
Overall bit rate : 1 368 Kbps
Writing application : VirtualDubMod 1.5.10.2 (build 2540/release)
Writing library : VirtualDubMod build 2540/release

Video
ID : 0
Format : MPEG-4 Visual
Format settings, BVOP : No
Format settings, QPel : No
Format settings, GMC : No warppoints
Format settings, Matrix : Default (H.263)
Codec ID : DX50
Codec ID/Hint : DivX 5
Duration : 1h 42mn
Bit rate : 1 199 Kbps
Width : 720 pixels
Height : 304 pixels
Display aspect ratio : 2.35:1
Frame rate : 23.976 fps
Color space : YUV
Chroma subsampling : 4:2:0
Bit depth : 8 bits
Scan type : Progressive
Compression mode : Lossy
Bits/(Pixel*Frame) : 0.228
Stream size : 881 MiB (88%)
Writing library : DivX 6.8.5 (UTC 2009-08-20)

Audio
ID : 1
Format : MPEG Audio
Format version : Version 1
Format profile : Layer 3
Mode : Joint stereo
Mode extension : MS Stereo
Codec ID : 55
Codec ID/Hint : MP3
Duration : 1h 42mn
Bit rate mode : Constant
Bit rate : 160 Kbps
Channel(s) : 2 channels
Sampling rate : 48.0 KHz
Compression mode : Lossy
Stream size : 118 MiB (12%)
Alignment : Split accross interleaves
Interleave, duration : 42 ms (1.00 video frame)
Interleave, preload duration : 500 ms

Descarga
US

Parte 1
http://www.uploadstation.com/file/AD....avi.part1.rar
Parte 2
http://www.uploadstation.com/file/ba....avi.part2.rar
Parte 3
http://www.uploadstation.com/file/dw....avi.part3.rar

Nota: Si encuentras un link caído avísame para volverlo a subir




orlando_2312 esta offline   Responder Con Cita
Respuesta

Etiquetas
2005, accion, avi, bang, dvdrip, español or españa, kiss


Usuarios activos actualmente viendo este tema: 1 (0 miembros y 1 visitantes)
 
Herramientas
Desplegado



El uso horario es GMT -5. La hora actual es: 06:50:17
Powered by vBulletin™ Version 3.8.6
Copyright © 2014 vBulletin Solutions, Inc. All rights reserved.
Traducción por vBHispano
vBulletin Skin by CompletevB
HagalePues.Net 2008 - 2014
SEO by vBSEO ©2011, Crawlability, Inc.