El Canto Del Loco [DVDRip Musical Castellano e Ingles 2009 .Avi FJ] - Hagale Pues
Header Hágale Pues
Retroceder   Hagale Pues » Foros de conversación » Basura de Hagalepues
Portal Foro Temas de Hoy Registrarse Buscar




El Canto Del Loco [DVDRip Musical Castellano e Ingles 2009 .Avi FJ]



Tema Cerrado
Herramientas
Antiguo 28/12/11, 14:22:19   #1
Usuario Encarretado
 
Avatar de dixson
 
Fecha de Ingreso: dic 2011
Ubicación: venezuela
Edad: 23
Mensajes: 135
Temas: 121
Has agradecido: 0
Has sido agradecido 0 veces en 0 mensajes
Poder de Credibilidad: 0
dixson llegará a ser famoso muy prontodixson llegará a ser famoso muy pronto
Reputación: 100
Predeterminado El Canto Del Loco [DVDRip Musical Castellano e Ingles 2009 .Avi FJ]





Información del archivo en el servidor
Partes: 2
Servidores: FJ
Tamaño: 828Mb

Sinopsis
En la línea de "Shine the Light" o "U2 3D", la película
enseñará la vida de los miembros (del grupo), tras el
escenario. Es decir, cómo se preparan, las
entrevistas que suelen dar, su modo de
vivir, las giras y muchas más cosas
exclusivas. El film tendrá un
estreno limitado en salas
3D y sólo podrá verse
entre los días 2 y
11 de enero, ambos
incluidos.

Caps





Ficha Tenica

TÍTULO ORIGINAL: El Canto del Loco: La película
AÑO: 2009
DURACIÓN: 97 min.
PAÍS: ESPAÑA
DIRECTOR: Félix Viscarret
REPARTO: Dani Martín, David Otero, Chema Ruiz
GÉNERO: Musical | Biográfico

Datos de ripeo

General
Complete name : files/DIXSON_ELCANTODELLOCO_CASTELLANO.avi
Format : AVI
Format/Info : Audio Video Interleave
File size : 828 MiB
Duration : 1h 29mn
Overall bit rate : 1 289 Kbps
Writing application : Lavf52.0.0

Video
ID : 0
Format : xvid
Codec ID : xvid
Duration : 1h 29mn
Bit rate : 1 212 Kbps
Width : 702 pixels
Height : 442 pixels
Display aspect ratio : 1.588
Frame rate : 25.000 fps
Bits/(Pixel*Frame) : 0.156
Stream size : 778 MiB (94%)

Audio
ID : 1
Format : MPEG Audio
Format version : Version 1
Format profile : Layer 3
Mode : Joint stereo
Mode extension : MS Stereo
Codec ID : 55
Codec ID/Hint : MP3
Duration : 1h 29mn
Bit rate mode : Constant
Bit rate : 64.0 Kbps
Channel(s) : 2 channels
Sampling rate : 48.0 KHz
Compression mode : Lossy
Stream size : 41.1 MiB (5%)
Alignment : Aligned on interleaves
Interleave, duration : 24 ms (0.60 video frame)
Interleave, preload duration : 24 ms

Descarga
FJ

Servidor #1

Parte 1
http://www.filejungle.com/f/GRABzr
Parte 2
http://www.filejungle.com/f/p6Xube

Servidor #2


Nota: Si encuentras un link caído avísame para volverlo a subir




dixson esta offline  
Antiguo 24/02/12, 16:13:34   #2
Usuario Nuevo
 
Fecha de Ingreso: mar 2010
Ubicación: riohacha
Mensajes: 14
Has agradecido: 70
Has sido agradecido 2 veces en 2 mensajes
Poder de Credibilidad: 0
diguar1 tiene un espectacular aura a su alrededordiguar1 tiene un espectacular aura a su alrededordiguar1 tiene un espectacular aura a su alrededor
Reputación: 205
Predeterminado Respuesta: El Canto Del Loco [DVDRip Musical Castellano e Ingles 2009 .Avi FJ]

la estaba buscando..gracias



diguar1 esta offline  
Antiguo 25/03/12, 00:35:17   #3
Moderador:
Zona Audiovisual
 
Avatar de jheialcazador
 
Fecha de Ingreso: mar 2012
Ubicación: BOGOTA
Edad: 23
Mensajes: 871
Temas: 242
Has agradecido: 1.575
Has sido agradecido 1.552 veces en 361 mensajes
Poder de Credibilidad: 3776
jheialcazador tiene una reputación que sobrepasa la famajheialcazador tiene una reputación que sobrepasa la famajheialcazador tiene una reputación que sobrepasa la famajheialcazador tiene una reputación que sobrepasa la famajheialcazador tiene una reputación que sobrepasa la famajheialcazador tiene una reputación que sobrepasa la famajheialcazador tiene una reputación que sobrepasa la famajheialcazador tiene una reputación que sobrepasa la famajheialcazador tiene una reputación que sobrepasa la famajheialcazador tiene una reputación que sobrepasa la famajheialcazador tiene una reputación que sobrepasa la fama
Reputación: 188140
Predeterminado Re: El Canto Del Loco [DVDRip Musical Castellano e Ingles 2009 .Avi FJ]


links caidos



__________________

DEJA TU GRANITO DE ARENA EN DÁ LAS GRACIAS
Dale Me gusta
Me puedes Seguir
jheialcazador esta offline  
Tema Cerrado

Etiquetas
2009, avi, canto, castellano, del, dvdrip, el, fj, ingles, loco, musical


Usuarios activos actualmente viendo este tema: 1 (0 miembros y 1 visitantes)
 
Herramientas
Desplegado



El uso horario es GMT -5. La hora actual es: 17:27:56
Powered by vBulletin™ Version 3.8.6
Copyright © 2014 vBulletin Solutions, Inc. All rights reserved.
Traducción por vBHispano
vBulletin Skin by CompletevB
HagalePues.Net 2008 - 2014
SEO by vBSEO ©2011, Crawlability, Inc.