Cowboys & Aliens (V.Ext)[Micro-HD 720p][2011][Castellano/Ing AC3 5.1] - Hagale Pues
Header Hágale Pues
Retroceder   Hagale Pues » Foros de conversación » Basura de Hagalepues
Portal Foro Temas de Hoy Registrarse Buscar




Cowboys & Aliens (V.Ext)[Micro-HD 720p][2011][Castellano/Ing AC3 5.1]



Respuesta
Herramientas
Antiguo 26/12/11, 16:53:33   #1
Baneado
 
Fecha de Ingreso: mar 2011
Ubicación: españa
Edad: 29
Mensajes: 3.550
Temas: 3539
Has agradecido: 0
Has sido agradecido 40 veces en 38 mensajes
Poder de Credibilidad: 0
evilsega tiene motivos para estar orgullosoevilsega tiene motivos para estar orgullosoevilsega tiene motivos para estar orgullosoevilsega tiene motivos para estar orgullosoevilsega tiene motivos para estar orgullosoevilsega tiene motivos para estar orgullosoevilsega tiene motivos para estar orgullosoevilsega tiene motivos para estar orgullosoevilsega tiene motivos para estar orgullosoevilsega tiene motivos para estar orgulloso
Reputación: 1385
Predeterminado Cowboys & Aliens (V.Ext)[Micro-HD 720p][2011][Castellano/Ing AC3 5.1]










TÍTULO ORIGINAL Cowboys & Aliens (Cowboys and Aliens)
AÑO
Ver trailer externo
2011
DURACIÓN
Trailers/Vídeos
118 min.
PAÍS
Sección visual
[Estados Unidos]
DIRECTOR Jon Favreau
GUIÓN Alex Kurtzman, Roberto Orci, Damon Lindelof, Mark Fergus, Hawk Ostby (Cómic: Fred Van Lente, Andrew Foley)
MÚSICA Harry Gregson-Williams
FOTOGRAFÍA Matthew Libatique
REPARTO Daniel Craig, Olivia Wilde, Harrison Ford, Noah Ringer, Sam Rockwell, Paul Dano, Abigail Spencer, Keith Carradine, Ana de la Reguera, Clancy Brown, Walton Goggins
PRODUCTORA DreamWorks SKG / Imagine Entertainment / Kurtzman/Orci / Platinum Studios / Universal Pictures
WEB OFICIAL http://www.cowboysandaliensmovie.com
GÉNERO Ciencia ficción. Western | Extraterrestres. Cómic
SINOPSIS En 1873, en el viejo Oeste, los colonos y los indios se enfrentan en una batalla salvaje por el control de las tierras. Pero cuando la Tierra se ve amenazada por seres de otro planeta, ambos bandos deberán colaborar para salvar a la humanidad.




[spoiler]
Código:
General
Complete name                            : C:\charrosevilsega.mkv
Format                                   : Matroska
Format version                           : Version 1
File size                                : 2.78 GiB
Duration                                 : 2h 15mn
Overall bit rate                         : 2 945 Kbps
Encoded date                             : UTC 2011-12-12 19:41:30
Writing application                      : mkvmerge v2.4.2 ('Oh My God') built on Jan 18 2009 17:30:28
Writing library                          : libebml v0.7.7 + libmatroska v0.8.1

Video
ID                                       : 1
Format                                   : AVC
Format/Info                              : Advanced Video Codec
Format profile                           : High@L4.1
Format settings, CABAC                   : Yes
Format settings, ReFrames                : 4 frames
Codec ID                                 : V_MPEG4/ISO/AVC
Duration                                 : 2h 15mn
Bit rate                                 : 2 299 Kbps
Width                                    : 1 280 pixels
Height                                   : 528 pixels
Display aspect ratio                     : 2.40:1
Frame rate                               : 24.000 fps
Original frame rate                      : 23.976 fps
Color space                              : YUV
Chroma subsampling                       : 4:2:0
Bit depth                                : 8 bits
Scan type                                : Progressive
Bits/(Pixel*Frame)                       : 0.142
Stream size                              : 2.12 GiB (76%)
Title                                    : Cowboys & Aliens m-720p.guerrero36
Writing library                          : x264 core 116 r2074 2641b9e
Encoding settings                        : cabac=1 / ref=4 / deblock=1:0:0 / analyse=0x3:0x133 / me=umh / subme=9 / psy=1 / psy_rd=1.00:0.00 / mixed_ref=1 / me_range=24 / chroma_me=1 / trellis=2 / 8x8dct=1 / cqm=0 / deadzone=21,11 / fast_pskip=1 / chroma_qp_offset=-2 / threads=9 / sliced_threads=0 / nr=0 / decimate=1 / interlaced=0 / bluray_compat=0 / constrained_intra=0 / bframes=3 / b_pyramid=2 / b_adapt=2 / b_bias=0 / direct=3 / weightb=1 / open_gop=0 / weightp=2 / keyint=250 / keyint_min=23 / scenecut=40 / intra_refresh=0 / rc_lookahead=60 / rc=2pass / mbtree=1 / bitrate=2299 / ratetol=1.0 / qcomp=0.60 / qpmin=10 / qpmax=51 / qpstep=4 / cplxblur=20.0 / qblur=0.5 / ip_ratio=1.40 / aq=1:1.00
Language                                 : Spanish

Audio #1
ID                                       : 2
Format                                   : AC-3
Format/Info                              : Audio Coding 3
Mode extension                           : CM (complete main)
Codec ID                                 : A_AC3
Duration                                 : 2h 15mn
Bit rate mode                            : Constant
Bit rate                                 : 384 Kbps
Channel(s)                               : 6 channels
Channel positions                        : Front: L C R, Side: L R, LFE
Sampling rate                            : 48.0 KHz
Bit depth                                : 16 bits
Compression mode                         : Lossy
Delay relative to video                  : 8ms
Stream size                              : 371 MiB (13%)
Language                                 : Spanish

Audio #2
ID                                       : 4
Format                                   : AC-3
Format/Info                              : Audio Coding 3
Mode extension                           : CM (complete main)
Codec ID                                 : A_AC3
Duration                                 : 2h 15mn
Bit rate mode                            : Constant
Bit rate                                 : 256 Kbps
Channel(s)                               : 6 channels
Channel positions                        : Front: L C R, Side: L R, LFE
Sampling rate                            : 48.0 KHz
Bit depth                                : 16 bits
Compression mode                         : Lossy
Delay relative to video                  : 28ms
Stream size                              : 247 MiB (9%)
Language                                 : English

Text #1
ID                                       : 3
Format                                   : UTF-8
Codec ID                                 : S_TEXT/UTF8
Codec ID/Info                            : UTF-8 Plain Text
Language                                 : Spanish

Text #2
ID                                       : 5
Format                                   : UTF-8
Codec ID                                 : S_TEXT/UTF8
Codec ID/Info                            : UTF-8 Plain Text
Language                                 : English
[/spoiler]









http://ul.to/2svc8mbl/charrosevilsega.part2.rar
http://ul.to/8jcdes46/charrosevilsega.part1.rar
http://ul.to/b9lo7x53/charrosevilsega.part3.rar





http://www.filesonic.com/file/fYtnmz...sega.part2.rar
http://www.filesonic.com/file/cm3OIM...sega.part3.rar
http://www.filesonic.com/file/Vqr3j9...sega.part1.rar





evilsega esta offline   Responder Con Cita
Respuesta

Etiquetas
51, 720p2011castellano or ing, ac3, aliens, cowboys, vextmicrohd


Usuarios activos actualmente viendo este tema: 1 (0 miembros y 1 visitantes)
 
Herramientas
Desplegado



El uso horario es GMT -5. La hora actual es: 10:41:59
Powered by vBulletin™ Version 3.8.6
Copyright © 2014 vBulletin Solutions, Inc. All rights reserved.
Traducción por vBHispano
vBulletin Skin by CompletevB
HagalePues.Net 2008 - 2014
SEO by vBSEO ©2011, Crawlability, Inc.