Cowboys vs Aliens [DVDRip Aventuras Castellano 2011 .Avi FJ] - Hagale Pues
Header Hágale Pues
Retroceder   Hagale Pues » Foros de conversación » Basura de Hagalepues
Portal Foro Temas de Hoy Registrarse Buscar




Cowboys vs Aliens [DVDRip Aventuras Castellano 2011 .Avi FJ]



Respuesta
Herramientas
Antiguo 23/12/11, 10:44:53   #1
Baneado
 
Fecha de Ingreso: nov 2011
Ubicación: En las peliculas
Mensajes: 740
Temas: 726
Has agradecido: 0
Has sido agradecido 6 veces en 6 mensajes
Poder de Credibilidad: 0
O2312 es como un diamante en brutoO2312 es como un diamante en brutoO2312 es como un diamante en brutoO2312 es como un diamante en bruto
Reputación: 335
Predeterminado Cowboys vs Aliens [DVDRip Aventuras Castellano 2011 .Avi FJ]





Información del archivo en el servidor
Partes: 7
Servidores: FJ
Tamaño: 1.61 GB

Sinopsis
En 1873, en el viejo Oeste, los colonos y los indios se enfrentan en una batalla
salvaje por el control de las tierras. Pero cuando la Tierra se ve amenazada
por seres de otro planeta, ambos bandos deberán colaborar para salvar a la
humanidad. ¿Qué relación tienen los vaqueros con los extraterrestres?
Esa es la primera pregunta que surge al ver solo el título
‘Cowboys vs. Aliens’.

Caps





Ficha Tenica

Titulo:
Cowboys vs Aliens
Titulo en Español :
Vaqueros Vs Alienigenas
Director: Jon FavreauÇ
Género: Aventura,
western, ciencia ficción
País: Estados Unidos
Año: 2011
Duración: 118 minutos
Elenco: Daniel Craig,
Harrison Ford, Olivia
Wilde, Sam Rockwell

Datos de ripeo

General

Complete name : files/O2312COWBOYSVSALIENSCASTELLANO.avi
Format : AVI
Format/Info : Audio Video Interleave
File size : 1.61 GiB
Duration : 2h 15mn
Overall bit rate : 1 708 Kbps
Writing application : VirtualDubMod 1.5.10.2 (build 2540/release)
Writing library : VirtualDubMod build 2540/release

Video

ID : 0
Format : MPEG-4 Visual
Format profile : Advanced Simple@L5
Format settings, BVOP : 2
Format settings, QPel : No
Format settings, GMC : No warppoints
Format settings, Matrix : Default (MPEG)
Muxing mode : Packed bitstream
Codec ID : XVID
Codec ID/Hint : XviD
Duration : 2h 15mn
Bit rate : 1 060 Kbps
Width : 720 pixels
Height : 304 pixels
Display aspect ratio : 2.35:1
Frame rate : 23.976 fps
Color space : YUV
Chroma subsampling : 4:2:0
Bit depth : 8 bits
Scan type : Progressive
Compression mode : Lossy
Bits/(Pixel*Frame) : 0.202
Stream size : 1.00 GiB (62%)
Writing library : XviD 64

Audio

ID : 1
Format : AC-3
Format/Info : Audio Coding 3
Mode extension : CM (complete main)
Codec ID : 2000
Duration : 2h 14mn
Bit rate mode : Constant
Bit rate : 640 Kbps
Channel(s) : 6 channels
Channel positions : Front: L C R, Side: L R, LFE
Sampling rate : 48.0 KHz
Bit depth : 16 bits
Compression mode : Lossy
Stream size : 617 MiB (37%)
Alignment : Split accross interleaves
Interleave, duration : 42 ms (1.00 video frame)
Interleave, preload duration : 500 ms

Descarga
FJ

Servidor #1

Parte 1
http://www.filejungle.com/f/Tyfwdr/O....avi.part1.rar
Parte 2
http://www.filejungle.com/f/8WK78r/O....avi.part2.rar
Parte 3
http://www.filejungle.com/f/hZXc8k/O....avi.part3.rar
Parte 4
http://www.filejungle.com/f/pNBpw2/O....avi.part4.rar
Parte 5
http://www.filejungle.com/f/BzcSbT/O....avi.part5.rar
Parte 6
http://www.filejungle.com/f/Nz7qUq/O....avi.part6.rar
Parte 7
http://www.filejungle.com/f/hzJzpd/O....avi.part7.rar

Servidor #2


Nota: Si encuentras un link caído avísame para volverlo a subir




O2312 esta offline   Responder Con Cita
Respuesta

Etiquetas
2011, aliens, aventuras, avi, castellano, cowboys, dvdrip, fj


Usuarios activos actualmente viendo este tema: 1 (0 miembros y 1 visitantes)
 
Herramientas
Desplegado



El uso horario es GMT -5. La hora actual es: 05:28:27
Powered by vBulletin™ Version 3.8.6
Copyright © 2014 vBulletin Solutions, Inc. All rights reserved.
Traducción por vBHispano
vBulletin Skin by CompletevB
HagalePues.Net 2008 - 2014
SEO by vBSEO ©2011, Crawlability, Inc.