Piratas del caribe 4 en mareas misteriosas [DVDRip Aventuras Castellano 2009 .Avi FJ & US ] - Hagale Pues
Header Hágale Pues
Retroceder   Hagale Pues » Foros de conversación » Basura de Hagalepues
Portal Foro Temas de Hoy Registrarse Buscar




Piratas del caribe 4 en mareas misteriosas [DVDRip Aventuras Castellano 2009 .Avi FJ & US ]



Tema Cerrado
Herramientas
Antiguo 21/12/11, 15:15:01   #1
Baneado
 
Fecha de Ingreso: nov 2011
Ubicación: En las peliculas
Mensajes: 740
Temas: 726
Has agradecido: 0
Has sido agradecido 6 veces en 6 mensajes
Poder de Credibilidad: 0
O2312 es como un diamante en brutoO2312 es como un diamante en brutoO2312 es como un diamante en brutoO2312 es como un diamante en bruto
Reputación: 335
Predeterminado Piratas del caribe 4 en mareas misteriosas [DVDRip Aventuras Castellano 2009 .Avi FJ & US ]





Información del archivo en el servidor
Partes: 5
Servidores: FJ & US
Tamaño: 2.00 Gb

Sinopsis
Producida por Jerry Bruckheimer y dirigida por Rob Marshall, “Piratas del Caribe: En Mareas
Misteriosas” vuelve a ofrecer las enormes dosis de diversión, aventura y humor que
deslumbraron en las anteriores entregas de esta saga de éxito. Pero esta vez
será en formato Disney Digital 3D™. Johnny Depp regresa a su ya legendario
papel del Capitán Jack Sparrow en un cuento repleto de acción sobre la
verdad, la traición, la juventud y la desaparición. Cuando Jack se
cruza con una mujer de su pasado (Penélope Cruz), no está muy
seguro de si se trata de amor o si ella es una estafadora
sin escrúpulos que le está utilizando para encontrar la
legendaria Fuente de la Juventud.

Caps





Ficha Tenica

Título:
Piratas del Caribe: En mareas misteriosas
Título original:
Pirates of the Caribbean: On Stranger Tides
País: USA
Estreno en USA: 20/05/2011
Estreno en España: 20/05/2011
Lanzamiento en DVD (alquiler): 21/09/2011
Estreno en DVD (venta): 21/09/2011
Estreno en Blu-ray: 21/09/2011
Productora: Walt Disney Pictures
Director: Rob Marshall
Guión: Terry Rossio, Ted Elliott

Datos de ripeo

General
Complete name : files/O2312PIRATASDELCARIBE4CASTELLANO.avi
Format : AVI
Format/Info : Audio Video Interleave
Format profile : OpenDML
File size : 2.00 GiB
Duration : 2h 10mn
Overall bit rate : 2 188 Kbps

Video
ID : 0
Format : MPEG-4 Visual
Format profile : Advanced Simple@L5
Format settings, BVOP : 1
Format settings, QPel : No
Format settings, GMC : No warppoints
Format settings, Matrix : Custom
Codec ID : XVID
Codec ID/Hint : XviD
Duration : 2h 10mn
Bit rate : 1 792 Kbps
Width : 720 pixels
Height : 304 pixels
Display aspect ratio : 2.35:1
Frame rate : 25.000 fps
Original frame rate : 23.976 fps
Color space : YUV
Chroma subsampling : 4:2:0
Bit depth : 8 bits
Scan type : Progressive
Compression mode : Lossy
Bits/(Pixel*Frame) : 0.327
Stream size : 1.64 GiB (82%)
Writing library : XviD 64

Audio
ID : 1
Format : AC-3
Format/Info : Audio Coding 3
Mode extension : CM (complete main)
Codec ID : 2000
Duration : 2h 10mn
Bit rate mode : Constant
Bit rate : 384 Kbps
Channel(s) : 6 channels
Channel positions : Front: L C R, Side: L R, LFE
Sampling rate : 48.0 KHz
Bit depth : 16 bits
Compression mode : Lossy
Stream size : 359 MiB (18%)
Alignment : Split accross interleaves
Interleave, duration : 40 ms (1.00 video frame)
Interleave, preload duration : 500 ms

Descarga
FJ & US

Servidor #1

Parte 1
http://www.filejungle.com/f/RCdpAp/O....avi.part1.rar
Parte 2
http://www.filejungle.com/f/DqTbBu/O....avi.part2.rar
Parte 3
http://www.filejungle.com/f/wxXx9X/O....avi.part3.rar
Parte 4
http://www.filejungle.com/f/ysuBgC/O....avi.part4.rar
Parte 5
http://www.filejungle.com/f/spZmza/O....avi.part5.rar

Servidor #2

Parte 1
http://www.uploadstation.com/file/Up....avi.part1.rar
Parte 2
http://www.uploadstation.com/file/Rx....avi.part2.rar
Parte 3
http://www.uploadstation.com/file/3f....avi.part3.rar
Parte 4
http://www.uploadstation.com/file/3g....avi.part4.rar
Parte 5
http://www.uploadstation.com/file/k4....avi.part5.rar

Nota: Si encuentras un link caído avísame para volverlo a subir




O2312 esta offline  
Tema Cerrado

Etiquetas
2009, 4, aventuras, avi, caribe, castellano, del, dvdrip, en, fj, mareas, misteriosas, piratas


Usuarios activos actualmente viendo este tema: 1 (0 miembros y 1 visitantes)
 
Herramientas
Desplegado



El uso horario es GMT -5. La hora actual es: 13:06:36
Powered by vBulletin™ Version 3.8.6
Copyright © 2014 vBulletin Solutions, Inc. All rights reserved.
Traducción por vBHispano
vBulletin Skin by CompletevB
HagalePues.Net 2008 - 2014
SEO by vBSEO ©2011, Crawlability, Inc.