Tekkonkinkreet [DVDRip Animacion Castellano 2006 .Avi US & FJ] - Hagale Pues
Header Hágale Pues
Retroceder   Hagale Pues » Foros de conversación » Basura de Hagalepues
Portal Foro Temas de Hoy Registrarse Buscar




Tekkonkinkreet [DVDRip Animacion Castellano 2006 .Avi US & FJ]



Tema Cerrado
Herramientas
Antiguo 19/12/11, 14:16:24   #1
Baneado
 
Fecha de Ingreso: nov 2011
Ubicación: En las peliculas
Mensajes: 740
Temas: 726
Has agradecido: 0
Has sido agradecido 6 veces en 6 mensajes
Poder de Credibilidad: 0
O2312 es como un diamante en brutoO2312 es como un diamante en brutoO2312 es como un diamante en brutoO2312 es como un diamante en bruto
Reputación: 335
Predeterminado Tekkonkinkreet [DVDRip Animacion Castellano 2006 .Avi US & FJ]





Información del archivo en el servidor
Partes: 4
Servidores: US & FJ
Tamaño: 751 Mb

Sinopsis
En Treasure Town, donde la luna sonríe y los chicos pueden volar, la vida puede ser tan maravillosa como terrible. Kuro y Shiro, dos huérfanos que se buscan la vida
como pueden, otean la ciudad como halcones y no paran de meterse en
líos. Su reinado en las alturas tocará a su fin cuando aparezca
un grupo de mafiosos.

Caps





Ficha Tenica

TÍTULO ORIGINAL
Tekon kinkurîto (Tekkonkinkreet)
AÑO 2006
DURACIÓN 111 min.
PAÍS Sección visual
DIRECTOR Michael Arias,
GUIÓN Anthony Weintraub
MÚSICA Plaid
FOTOGRAFÍA Animation
REPARTO Animation

Datos de ripeo

General

Complete name : files/O2312TEKKONKINKREETCASTELLANO.avi
Format : AVI
Format/Info : Audio Video Interleave
File size : 751 MiB
Duration : 1h 47mn
Overall bit rate : 981 Kbps

Video

ID : 0
Format : MPEG-4 Visual
Format settings, BVOP : 1
Format settings, QPel : No
Format settings, GMC : No warppoints
Format settings, Matrix : Default (H.263)
Muxing mode : Packed bitstream
Codec ID : DX50
Codec ID/Hint : DivX 5
Duration : 1h 47mn
Bit rate : 779 Kbps
Width : 720 pixels
Height : 480 pixels
Display aspect ratio : 3:2
Frame rate : 25.000 fps
Standard : NTSC
Color space : YUV
Chroma subsampling : 4:2:0
Bit depth : 8 bits
Scan type : Progressive
Compression mode : Lossy
Bits/(Pixel*Frame) : 0.090
Stream size : 597 MiB (79%)
Writing library : DivX 6.4.0 (UTC 2006-10-03)

Audio

ID : 1
Format : MPEG Audio
Format version : Version 1
Format profile : Layer 3
Codec ID : 55
Codec ID/Hint : MP3
Duration : 1h 47mn
Bit rate mode : Constant
Bit rate : 192 Kbps
Channel(s) : 2 channels
Sampling rate : 44.1 KHz
Compression mode : Lossy
Delay relative to video : 26ms
Stream size : 147 MiB (20%)
Alignment : Split accross interleaves
Interleave, duration : 40 ms (1.00 video frame)
Title : Audio Stream
Writing library : LAME3.92

Descarga
US & FJ

Servidor #1

Parte 1
http://www.filejungle.com/f/suA8ra/O....avi.part1.rar
Parte 2
http://www.filejungle.com/f/Cdrt9C/O....avi.part2.rar
Parte 3
http://www.filejungle.com/f/pTG5vN/O....avi.part3.rar
Parte 4
http://www.filejungle.com/f/RwFs62/O....avi.part4.rar

Servidor #2

Parte 1
http://www.uploadstation.com/file/gH....avi.part1.rar
Parte 2
http://www.uploadstation.com/file/HS....avi.part2.rar
Parte 3
http://www.uploadstation.com/file/8G....avi.part3.rar
Parte 4
http://www.uploadstation.com/file/4Y....avi.part4.rar

Nota: Si encuentras un link caído avísame para volverlo a subir




O2312 esta offline  
Antiguo 22/06/12, 19:46:58   #2
Moderador:
Zona Audiovisual
 
Avatar de jheialcazador
 
Fecha de Ingreso: mar 2012
Ubicación: BOGOTA
Edad: 23
Mensajes: 871
Temas: 242
Has agradecido: 1.575
Has sido agradecido 1.554 veces en 361 mensajes
Poder de Credibilidad: 3777
jheialcazador tiene una reputación que sobrepasa la famajheialcazador tiene una reputación que sobrepasa la famajheialcazador tiene una reputación que sobrepasa la famajheialcazador tiene una reputación que sobrepasa la famajheialcazador tiene una reputación que sobrepasa la famajheialcazador tiene una reputación que sobrepasa la famajheialcazador tiene una reputación que sobrepasa la famajheialcazador tiene una reputación que sobrepasa la famajheialcazador tiene una reputación que sobrepasa la famajheialcazador tiene una reputación que sobrepasa la famajheialcazador tiene una reputación que sobrepasa la fama
Reputación: 188190
Predeterminado Re: Tekkonkinkreet [DVDRip Animacion Castellano 2006 .Avi US & FJ]

El archivo no está disponible



__________________

DEJA TU GRANITO DE ARENA EN DÁ LAS GRACIAS
Dale Me gusta
Me puedes Seguir
jheialcazador esta offline  
Tema Cerrado

Etiquetas
2006, animacion, avi, castellano, dvdrip, fj, tekkonkinkreet


Usuarios activos actualmente viendo este tema: 1 (0 miembros y 1 visitantes)
 
Herramientas
Desplegado



El uso horario es GMT -5. La hora actual es: 01:22:53
Powered by vBulletin™ Version 3.8.6
Copyright © 2014 vBulletin Solutions, Inc. All rights reserved.
Traducción por vBHispano
vBulletin Skin by CompletevB
HagalePues.Net 2008 - 2014
SEO by vBSEO ©2011, Crawlability, Inc.