Tokio vice [DVDRip Animacion Castellano 2003 .Avi US & FJ] - Hagale Pues
Header Hágale Pues
Retroceder   Hagale Pues » Foros de conversación » Basura de Hagalepues
Portal Foro Temas de Hoy Registrarse Buscar




Tokio vice [DVDRip Animacion Castellano 2003 .Avi US & FJ]



Tema Cerrado
Herramientas
Antiguo 19/12/11, 15:08:01   #1
Baneado
 
Fecha de Ingreso: nov 2011
Ubicación: En las peliculas
Mensajes: 740
Temas: 726
Has agradecido: 0
Has sido agradecido 6 veces en 6 mensajes
Poder de Credibilidad: 0
O2312 es como un diamante en brutoO2312 es como un diamante en brutoO2312 es como un diamante en brutoO2312 es como un diamante en bruto
Reputación: 335
Predeterminado Tokio vice [DVDRip Animacion Castellano 2003 .Avi US & FJ]





Información del archivo en el servidor
Partes:
Servidores: US & FJ
Tamaño: 430 Mb

Sinopsis
Junpei de la Agencia de Detectives Rutz recibe un disquete de un hombre que irrumpe en un concierto de Akira y muere. A pesar de las reservas que Akira siente por el caso, Junpei
decide comenzar la investigación. Pronto el peligro le acechará y Kumiko será
raptada. ¿Qué contendrá el disquete?...

Caps





Ficha Tenica

TÍTULO ORIGINAL
Tokyo Project (Tokyo Vice)
AÑO 2003
DURACIÓN 60 min.
PAÍS
DIRECTOR Osamu Yamazaki
Kenichi Onuki
GUIÓN Osamu Yamazaki
Kenichi Onuki

Datos de ripeo

General

Complete name : files/O2312TOKYOVICECASTELLANO.avi
Format : AVI
Format/Info : Audio Video Interleave
File size : 430 MiB
Duration : 53mn 17s
Overall bit rate mode : Variable
Overall bit rate : 1 128 Kbps
Writing library : MPlayer

Video

ID : 0
Format : MPEG-4 Visual
Format profile : Simple@L1
Format settings, BVOP : No
Format settings, QPel : No
Format settings, GMC : No warppoints
Format settings, Matrix : Default (H.263)
Codec ID : DX50
Codec ID/Hint : DivX 5
Duration : 53mn 17s
Bit rate : 998 Kbps
Width : 720 pixels
Height : 480 pixels
Display aspect ratio : 3:2
Frame rate : 25.000 fps
Standard : NTSC
Color space : YUV
Chroma subsampling : 4:2:0
Bit depth : 8 bits
Scan type : Progressive
Compression mode : Lossy
Bits/(Pixel*Frame) : 0.116
Stream size : 380 MiB (88%)
Writing library : Lavc51.11.0

Audio

ID : 1
Format : MPEG Audio
Format version : Version 1
Format profile : Layer 3
Codec ID : 55
Codec ID/Hint : MP3
Duration : 53mn 17s
Bit rate mode : Variable
Bit rate : 117 Kbps
Channel(s) : 1 channel
Sampling rate : 48.0 KHz
Compression mode : Lossy
Stream size : 44.7 MiB (10%)
Alignment : Aligned on interleaves
Interleave, duration : 24 ms (0.60 video frame)
Interleave, preload duration : 530 ms

Descarga
US & FJ

Servidor #1

Parte 1
http://www.filejungle.com/f/w3XhxW/O....avi.part1.rar
Parte 2
http://www.filejungle.com/f/qr9AkH/O....avi.part2.rar
Parte 3
http://www.filejungle.com/f/gqbWUy/O....avi.part3.rar

Servidor #2

Parte 1
http://www.uploadstation.com/file/wC....avi.part1.rar
Parte 2
http://www.uploadstation.com/file/DQ....avi.part2.rar
Parte 3
http://www.uploadstation.com/file/tZ....avi.part3.rar

Nota: Si encuentras un link caído avísame para volverlo a subir




O2312 esta offline  
marca Hoy   #1.5
Torinbo
Usuario Activo

avatar
 
Fecha Ingreso: Jul 2008
Ubicación: En el 2 post
Edad: 18
Mensajes: 1569
Poder de Credibilidad: 550
skypemsn
Respuesta Re: Tokio vice [DVDRip Animacion Castellano 2003 .Avi US & FJ]

 
__________________


conectado
Antiguo 22/06/12, 20:47:27   #2
Moderador:
Zona Audiovisual
 
Avatar de jheialcazador
 
Fecha de Ingreso: mar 2012
Ubicación: BOGOTA
Edad: 23
Mensajes: 869
Temas: 235
Has agradecido: 1.575
Has sido agradecido 1.555 veces en 361 mensajes
Poder de Credibilidad: 3779
jheialcazador tiene una reputación que sobrepasa la famajheialcazador tiene una reputación que sobrepasa la famajheialcazador tiene una reputación que sobrepasa la famajheialcazador tiene una reputación que sobrepasa la famajheialcazador tiene una reputación que sobrepasa la famajheialcazador tiene una reputación que sobrepasa la famajheialcazador tiene una reputación que sobrepasa la famajheialcazador tiene una reputación que sobrepasa la famajheialcazador tiene una reputación que sobrepasa la famajheialcazador tiene una reputación que sobrepasa la famajheialcazador tiene una reputación que sobrepasa la fama
Reputación: 188215
Predeterminado Re: Tokio vice [DVDRip Animacion Castellano 2003 .Avi US & FJ]

El archivo no está disponible



__________________

DEJA TU GRANITO DE ARENA EN DÁ LAS GRACIAS
Dale Me gusta
Me puedes Seguir
jheialcazador esta offline  
Tema Cerrado

Etiquetas
2003, animacion, avi, castellano, dvdrip, fj, tokio, vice


Usuarios activos actualmente viendo este tema: 1 (0 miembros y 1 visitantes)
 
Herramientas
Desplegado



El uso horario es GMT -5. La hora actual es: 23:17:19
Powered by vBulletin™ Version 3.8.6
Copyright © 2014 vBulletin Solutions, Inc. All rights reserved.
Traducción por vBHispano
vBulletin Skin by CompletevB
HagalePues.Net 2008 - 2014
SEO by vBSEO ©2011, Crawlability, Inc.


BidVertiser