Vals con bashir [DVDRip Animacion Castellano 2008 .Avi US & FJ] - Hagale Pues
Header Hágale Pues
Retroceder   Hagale Pues » Foros de conversación » Basura de Hagalepues
Portal Foro Temas de Hoy Registrarse Buscar




Vals con bashir [DVDRip Animacion Castellano 2008 .Avi US & FJ]



Tema Cerrado
Herramientas
Antiguo 19/12/11, 14:00:54   #1
Baneado
 
Fecha de Ingreso: nov 2011
Ubicación: En las peliculas
Mensajes: 740
Temas: 726
Has agradecido: 0
Has sido agradecido 6 veces en 6 mensajes
Poder de Credibilidad: 0
O2312 es como un diamante en brutoO2312 es como un diamante en brutoO2312 es como un diamante en brutoO2312 es como un diamante en bruto
Reputación: 335
Predeterminado Vals con bashir [DVDRip Animacion Castellano 2008 .Avi US & FJ]





Información del archivo en el servidor
Partes: 3
Servidores: US & FJ
Tamaño: 705 Mb

Sinopsis
Documental animado sobre la matanza de refugiados palestinos en Sabra y Chatila (Líbano)
en 1982. Una noche, en un bar, un viejo amigo cuenta al director Ari que tiene
una pesadilla recurrente en la que le persiguen 26 perros. Cada noche, el
mismo número de animales. Los dos hombres llegan a la conclusión de que
tiene que ver con una misión que realizaron para el ejército israelí
durante la primera guerra con el Líbano a principios de los años
ochenta. Ari se sorprende ante el hecho de que no
recuerde nada de ese periodo de su vida

Caps





Ficha Tenica

TÍTULO ORIGINAL Waltz with Bashir
AÑO 2008
DURACIÓN 87 min.
PAÍS [Israel]
DIRECTOR Ari Folman
GUIÓN Ari Folman
MÚSICA Max Richter
FOTOGRAFÍA Animation
REPARTO Animation

Datos de ripeo

General

Complete name : files/O2312VALSCONBASHIRCASTELLANO.avi
Format : AVI
Format/Info : Audio Video Interleave
File size : 705 MiB
Duration : 1h 26mn
Overall bit rate mode : Variable
Overall bit rate : 1 137 Kbps
Writing application : VirtualDubMod 1.5.10.2 (build 2540/release)
Writing library : VirtualDubMod build 2540/release

Video

ID : 0
Format : MPEG-4 Visual
Format profile : Advanced Simple@L5
Format settings, BVOP : 2
Format settings, QPel : No
Format settings, GMC : No warppoints
Format settings, Matrix : Default (H.263)
Muxing mode : Packed bitstream
Codec ID : XVID
Codec ID/Hint : XviD
Duration : 1h 26mn
Bit rate : 996 Kbps
Width : 576 pixels
Height : 320 pixels
Display aspect ratio : 16:9
Frame rate : 25.000 fps
Color space : YUV
Chroma subsampling : 4:2:0
Bit depth : 8 bits
Scan type : Progressive
Compression mode : Lossy
Bits/(Pixel*Frame) : 0.216
Stream size : 618 MiB (88%)
Writing library : XviD 1.0.3 (UTC 2004-12-20)

Audio

ID : 1
Format : MPEG Audio
Format version : Version 1
Format profile : Layer 3
Mode : Joint stereo
Mode extension : MS Stereo
Codec ID : 55
Codec ID/Hint : MP3
Duration : 1h 26mn
Bit rate mode : Variable
Bit rate : 128 Kbps
Channel(s) : 2 channels
Sampling rate : 48.0 KHz
Compression mode : Lossy
Stream size : 79.2 MiB (11%)
Alignment : Aligned on interleaves
Interleave, duration : 24 ms (0.60 video frame)
Interleave, preload duration : 222 ms
Writing library : LAME3.90.
Encoding settings : -m j -V 4 -q 2 -lowpass 17.6 --abr 128

Descarga
US & FJ

Servidor #1

Parte 1
http://www.filejungle.com/f/ANAHHm/O....avi.part1.rar
Parte 2
http://www.filejungle.com/f/Ucq7Bj/O....avi.part2.rar
Parte 3
http://www.filejungle.com/f/TyX9wv/O....avi.part3.rar

Servidor #2

Parte 1
http://www.uploadstation.com/file/ts....avi.part1.rar
Parte 2
http://www.uploadstation.com/file/fn....avi.part2.rar
Parte 3
http://www.uploadstation.com/file/4C....avi.part3.rar

Nota: Si encuentras un link caído avísame para volverlo a subir




O2312 esta offline  
Antiguo 22/06/12, 19:48:09   #2
Moderador:
Zona Audiovisual
 
Avatar de jheialcazador
 
Fecha de Ingreso: mar 2012
Ubicación: BOGOTA
Edad: 23
Mensajes: 859
Temas: 230
Has agradecido: 1.568
Has sido agradecido 1.518 veces en 352 mensajes
Poder de Credibilidad: 3757
jheialcazador tiene una reputación que sobrepasa la famajheialcazador tiene una reputación que sobrepasa la famajheialcazador tiene una reputación que sobrepasa la famajheialcazador tiene una reputación que sobrepasa la famajheialcazador tiene una reputación que sobrepasa la famajheialcazador tiene una reputación que sobrepasa la famajheialcazador tiene una reputación que sobrepasa la famajheialcazador tiene una reputación que sobrepasa la famajheialcazador tiene una reputación que sobrepasa la famajheialcazador tiene una reputación que sobrepasa la famajheialcazador tiene una reputación que sobrepasa la fama
Reputación: 187290
Predeterminado Re: Vals con bashir [DVDRip Animacion Castellano 2008 .Avi US & FJ]

El archivo no está disponible



__________________

DEJA TU GRANITO DE ARENA EN DÁ LAS GRACIAS
Dale Me gusta
Me puedes Seguir
jheialcazador esta offline  
Tema Cerrado

Etiquetas
2008, animacion, avi, bashir, castellano, con, dvdrip, fj, vals


Usuarios activos actualmente viendo este tema: 1 (0 miembros y 1 visitantes)
 
Herramientas
Desplegado



El uso horario es GMT -5. La hora actual es: 10:40:32
Powered by vBulletin™ Version 3.8.6
Copyright © 2014 vBulletin Solutions, Inc. All rights reserved.
Traducción por vBHispano
vBulletin Skin by CompletevB
HagalePues.Net 2008 - 2014
SEO by vBSEO ©2011, Crawlability, Inc.