Objetivo terrum [DVDRip Animacion Castellano 2007 .Avi US & FJ] - Hagale Pues
Header Hágale Pues
Retroceder   Hagale Pues » Foros de conversación » Basura de Hagalepues
Portal Foro Temas de Hoy Registrarse Buscar




Objetivo terrum [DVDRip Animacion Castellano 2007 .Avi US & FJ]



Tema Cerrado
Herramientas
Antiguo 19/12/11, 14:54:08   #1
Baneado
 
Fecha de Ingreso: nov 2011
Ubicación: En las peliculas
Mensajes: 740
Temas: 726
Has agradecido: 0
Has sido agradecido 6 veces en 6 mensajes
Poder de Credibilidad: 0
O2312 es como un diamante en brutoO2312 es como un diamante en brutoO2312 es como un diamante en brutoO2312 es como un diamante en bruto
Reputación: 335
Predeterminado Objetivo terrum [DVDRip Animacion Castellano 2007 .Avi US & FJ]





Información del archivo en el servidor
Partes: 6
Servidores: US & FJ
Tamaño: 1.27 Gb

Sinopsis
Mala (Evan Rachel Wood) es una preciosa muchacha que vive en el hermoso planeta Terrum, un
lugar donde reina la paz y la tolerancia. Por otro lado, los últimos habitantes de la
Tierra han agotado los recursos de su planeta y ahora buscan una nueva casa. En su
búsqueda descubren que utilizando una sofisticada maquinaria harán que Terrum
sea habitable para los humanos, pero letal para los habitantes de Terrum.

Caps





Ficha Tenica

Título: Objetivo Terrum
Título original: Terra
Dirección:
Aristomenis Tsirbas
País: Estados Unidos
Año: 2007
Fecha de estreno
Duración: 85 min.
Género: Animación,
Aventuras, Acción
Calificación: Apta
para todos los públicos

Datos de ripeo

General

Complete name : files/O2312OBJETIVOTERRUMCASTELLANO.avi
Format : AVI
Format/Info : Audio Video Interleave
File size : 1.27 GiB
Duration : 1h 25mn
Overall bit rate : 2 133 Kbps
Writing application : VirtualDubMod 1.4.13
Writing library : VirtualDub build 14328/release

Video

ID : 0
Format : MPEG-4 Visual
Format profile : Advanced Simple@L5
Format settings, BVOP : 2
Format settings, QPel : No
Format settings, GMC : No warppoints
Format settings, Matrix : Default (H.263)
Muxing mode : Packed bitstream
Codec ID : XVID
Codec ID/Hint : XviD
Duration : 1h 25mn
Bit rate : 1 995 Kbps
Width : 720 pixels
Height : 304 pixels
Display aspect ratio : 2.35:1
Frame rate : 24.000 fps
Color space : YUV
Chroma subsampling : 4:2:0
Bit depth : 8 bits
Scan type : Progressive
Compression mode : Lossy
Bits/(Pixel*Frame) : 0.380
Stream size : 1.19 GiB (94%)
Writing library : XviD 1.2.1 (UTC 2008-12-04)

Audio

ID : 1
Format : MPEG Audio
Format version : Version 1
Format profile : Layer 3
Mode : Joint stereo
Codec ID : 55
Codec ID/Hint : MP3
Duration : 1h 25mn
Bit rate mode : Constant
Bit rate : 128 Kbps
Channel(s) : 2 channels
Sampling rate : 44.1 KHz
Compression mode : Lossy
Stream size : 78.2 MiB (6%)
Alignment : Split accross interleaves
Interleave, duration : 42 ms (1.00 video frame)
Interleave, preload duration : 499 ms

Descarga
US & FJ

Servidor #1

Parte 1
http://www.filejungle.com/f/qWPtvW/O....avi.part1.rar
Parte 2
http://www.filejungle.com/f/cXAc5B/O....avi.part2.rar
Parte 3
http://www.filejungle.com/f/Jzz6ba/O....avi.part3.rar
Parte 4
http://www.filejungle.com/f/kPCAuD/O....avi.part4.rar
Parte 5
http://www.filejungle.com/f/RV8JjD/O....avi.part5.rar
Parte 6
http://www.filejungle.com/f/KNqhaQ/O....avi.part6.rar

Servidor #2

Parte 1
http://www.uploadstation.com/file/7s....avi.part1.rar
Parte 2
http://www.uploadstation.com/file/Ec....avi.part2.rar
Parte 3
http://www.uploadstation.com/file/PN....avi.part3.rar
Parte 4
http://www.uploadstation.com/file/Kr....avi.part4.rar
Parte 5
http://www.uploadstation.com/file/8x....avi.part5.rar
Parte 6
http://www.uploadstation.com/file/cq....avi.part6.rar

Nota: Si encuentras un link caído avísame para volverlo a subir




O2312 esta offline  
marca Hoy   #1.5
Torinbo
Usuario Activo

avatar
 
Fecha Ingreso: Jul 2008
Ubicación: En el 2 post
Edad: 18
Mensajes: 1569
Poder de Credibilidad: 550
skypemsn
Respuesta Re: Objetivo terrum [DVDRip Animacion Castellano 2007 .Avi US & FJ]

 
__________________


conectado
Antiguo 22/06/12, 20:48:25   #2
Moderador:
Zona Audiovisual
 
Avatar de jheialcazador
 
Fecha de Ingreso: mar 2012
Ubicación: BOGOTA
Edad: 23
Mensajes: 869
Temas: 235
Has agradecido: 1.575
Has sido agradecido 1.555 veces en 361 mensajes
Poder de Credibilidad: 3779
jheialcazador tiene una reputación que sobrepasa la famajheialcazador tiene una reputación que sobrepasa la famajheialcazador tiene una reputación que sobrepasa la famajheialcazador tiene una reputación que sobrepasa la famajheialcazador tiene una reputación que sobrepasa la famajheialcazador tiene una reputación que sobrepasa la famajheialcazador tiene una reputación que sobrepasa la famajheialcazador tiene una reputación que sobrepasa la famajheialcazador tiene una reputación que sobrepasa la famajheialcazador tiene una reputación que sobrepasa la famajheialcazador tiene una reputación que sobrepasa la fama
Reputación: 188215
Predeterminado Re: Objetivo terrum [DVDRip Animacion Castellano 2007 .Avi US & FJ]

El archivo no está disponible



__________________

DEJA TU GRANITO DE ARENA EN DÁ LAS GRACIAS
Dale Me gusta
Me puedes Seguir
jheialcazador esta offline  
Tema Cerrado

Etiquetas
2007, animacion, avi, castellano, dvdrip, fj, objetivo, terrum


Usuarios activos actualmente viendo este tema: 1 (0 miembros y 1 visitantes)
 
Herramientas
Desplegado



El uso horario es GMT -5. La hora actual es: 15:54:57
Powered by vBulletin™ Version 3.8.6
Copyright © 2014 vBulletin Solutions, Inc. All rights reserved.
Traducción por vBHispano
vBulletin Skin by CompletevB
HagalePues.Net 2008 - 2014
SEO by vBSEO ©2011, Crawlability, Inc.


BidVertiser