Ghost in shell [DVDRip Animacion Castellano 2008 .Avi US & FJ] - Hagale Pues
Header Hágale Pues
Retroceder   Hagale Pues » Foros de conversación » Basura de Hagalepues
Portal Foro Temas de Hoy Registrarse Buscar




Ghost in shell [DVDRip Animacion Castellano 2008 .Avi US & FJ]



Tema Cerrado
Herramientas
Antiguo 19/12/11, 13:46:44   #1
Baneado
 
Fecha de Ingreso: nov 2011
Ubicación: En las peliculas
Mensajes: 740
Temas: 726
Has agradecido: 0
Has sido agradecido 6 veces en 6 mensajes
Poder de Credibilidad: 0
O2312 es como un diamante en brutoO2312 es como un diamante en brutoO2312 es como un diamante en brutoO2312 es como un diamante en bruto
Reputación: 335
Predeterminado Ghost in shell [DVDRip Animacion Castellano 2008 .Avi US & FJ]





Información del archivo en el servidor
Partes: 4
Servidores: US & FJ
Tamaño: 894 Mb

Sinopsis
Ghost in the Shell 2.0 es una remasterización/remake del clásico original dirigido por Mamoru Oshii en 1995,
basado a su vez en el manga de Masamune Shinow. Esta nueva versión se estrenó en los cines de Japón en verano de 2008
para conmemorar la salida de The Sky Crawlers, y llegará a DVD y Blu-Ray a lo largo de 2009.

Caps





Ficha Tenica

TÍTULO ORIGINAL
Kôkaku kidôtai 2.0 (Ghost in the Shell 2.0)
AÑO 2008
DURACIÓN 83 min.
PAÍS Japón
IDIOMA Castellano
DIRECTOR Mamoru Oshii
GUIÓN Kazunori Itô
MÚSICA Kenji Kawai
FOTOGRAFÍA Animation
REPARTO Animation

Datos de ripeo

General

Complete name : files/O2312GHOSTINTHESHELLCASTELLANO.avi
Format : AVI
Format/Info : Audio Video Interleave
File size : 894 MiB
Duration : 1h 19mn
Overall bit rate : 1 570 Kbps
Writing application : VirtualDubMod 1.5.10.2 (build 2542/release)
Writing library : VirtualDubMod build 2542/release

Video

ID : 0
Format : MPEG-4 Visual
Format profile : Advanced Simple@L5
Format settings, BVOP : 1
Format settings, QPel : No
Format settings, GMC : No warppoints
Format settings, Matrix : Default (H.263)
Muxing mode : Packed bitstream
Codec ID : XVID
Codec ID/Hint : XviD
Duration : 1h 19mn
Bit rate : 1 114 Kbps
Width : 720 pixels
Height : 416 pixels
Display aspect ratio : 16:9
Frame rate : 25.000 fps
Color space : YUV
Chroma subsampling : 4:2:0
Bit depth : 8 bits
Scan type : Progressive
Compression mode : Lossy
Bits/(Pixel*Frame) : 0.149
Stream size : 634 MiB (71%)
Writing library : XviD 1.1.2 (UTC 2006-11-01)

Audio

ID : 1
Format : AC-3
Format/Info : Audio Coding 3
Mode extension : CM (complete main)
Codec ID : 2000
Duration : 1h 19mn
Bit rate mode : Constant
Bit rate : 448 Kbps
Channel(s) : 6 channels
Channel positions : Front: L C R, Side: L R, LFE
Sampling rate : 48.0 KHz
Bit depth : 16 bits
Compression mode : Lossy
Stream size : 255 MiB (29%)
Alignment : Split accross interleaves
Interleave, duration : 64 ms (1.60 video frames)
Interleave, preload duration : 500 ms

Descarga
US & FJ

Servidor #1

Parte 1
http://www.filejungle.com/f/sXSpDy/O....avi.part1.rar
Parte 2
http://www.filejungle.com/f/jXcrWW/O....avi.part2.rar
Parte 3
http://www.filejungle.com/f/4HaC8p/O....avi.part3.rar
Parte 4
http://www.filejungle.com/f/3jZY4P/O....avi.part4.rar

Servidor #2

Parte 1
http://www.uploadstation.com/file/JQ....avi.part1.rar
Parte 2
http://www.uploadstation.com/file/fU....avi.part2.rar
Parte 3
http://www.uploadstation.com/file/yC....avi.part3.rar
Parte 4
http://www.uploadstation.com/file/dU....avi.part4.rar

Nota: Si encuentras un link caído avísame para volverlo a subir




O2312 esta offline  
Antiguo 22/06/12, 19:48:43   #2
Moderador:
Zona Audiovisual
 
Avatar de jheialcazador
 
Fecha de Ingreso: mar 2012
Ubicación: BOGOTA
Edad: 23
Mensajes: 871
Temas: 242
Has agradecido: 1.575
Has sido agradecido 1.552 veces en 361 mensajes
Poder de Credibilidad: 3776
jheialcazador tiene una reputación que sobrepasa la famajheialcazador tiene una reputación que sobrepasa la famajheialcazador tiene una reputación que sobrepasa la famajheialcazador tiene una reputación que sobrepasa la famajheialcazador tiene una reputación que sobrepasa la famajheialcazador tiene una reputación que sobrepasa la famajheialcazador tiene una reputación que sobrepasa la famajheialcazador tiene una reputación que sobrepasa la famajheialcazador tiene una reputación que sobrepasa la famajheialcazador tiene una reputación que sobrepasa la famajheialcazador tiene una reputación que sobrepasa la fama
Reputación: 188140
Predeterminado Re: Ghost in shell [DVDRip Animacion Castellano 2008 .Avi US & FJ]

El archivo no está disponible



__________________

DEJA TU GRANITO DE ARENA EN DÁ LAS GRACIAS
Dale Me gusta
Me puedes Seguir
jheialcazador esta offline  
Tema Cerrado

Etiquetas
2008, animacion, avi, castellano, dvdrip, fj, ghost, shell


Usuarios activos actualmente viendo este tema: 1 (0 miembros y 1 visitantes)
 
Herramientas
Desplegado



El uso horario es GMT -5. La hora actual es: 06:43:58
Powered by vBulletin™ Version 3.8.6
Copyright © 2014 vBulletin Solutions, Inc. All rights reserved.
Traducción por vBHispano
vBulletin Skin by CompletevB
HagalePues.Net 2008 - 2014
SEO by vBSEO ©2011, Crawlability, Inc.