El guerrero sin nombre [DVDRip Animacion Castellano 2006 .Avi US & FJ] - Hagale Pues
Header Hágale Pues
Retroceder   Hagale Pues » Foros de conversación » Basura de Hagalepues
Portal Foro Temas de Hoy Registrarse Buscar




El guerrero sin nombre [DVDRip Animacion Castellano 2006 .Avi US & FJ]



Tema Cerrado
Herramientas
Antiguo 19/12/11, 13:33:08   #1
Baneado
 
Fecha de Ingreso: nov 2011
Ubicación: En las peliculas
Mensajes: 740
Temas: 726
Has agradecido: 0
Has sido agradecido 6 veces en 6 mensajes
Poder de Credibilidad: 0
O2312 es como un diamante en brutoO2312 es como un diamante en brutoO2312 es como un diamante en brutoO2312 es como un diamante en bruto
Reputación: 335
Predeterminado El guerrero sin nombre [DVDRip Animacion Castellano 2006 .Avi US & FJ]





Información del archivo en el servidor
Partes: 3
Servidores: US & FJ
Tamaño: 695 Mb

Sinopsis
En una de sus misiones como mercenario a sueldo, El Guerrero sin Nombre se encuentra con un siniestro y poderoso monje supremo, que está llevando a cabo un malvado plan para
dominar el mundo. Para ello necesita la ayuda de los poderes de un niño, una
caja misteriosa y una conjunción de astros inminente. Después de que el
monje supremo intenta asesinar a El Guerrero sin Nombre, éste se ve
involucrado en una aventura sin precedentes.

Caps





Ficha Tenica

TÍTULO ORIGINAL El guerrero sin nombre
AÑO 2006
DURACIÓN 90 min.
PAÍS
DIRECTOR David Iglesias
GUIÓN Angel E. Pariente, Javier López Blanco
MÚSICA Bernard Becker
FOTOGRAFÍA Animation
REPARTO Animation

Datos de ripeo

General

Complete name : files/O2312ELGUERREROSINNOMBRECASTELLANO.avi
Format : AVI
Format/Info : Audio Video Interleave
File size : 695 MiB
Duration : 1h 21mn
Overall bit rate mode : Variable
Overall bit rate : 1 192 Kbps
Writing application : VirtualDubMod 1.5.10.2 (build 2540/release)
Writing library : VirtualDubMod build 2540/release

Video

ID : 0
Format : MPEG-4 Visual
Format profile : Simple@L3
Format settings, BVOP : 2
Format settings, QPel : No
Format settings, GMC : No warppoints
Format settings, Matrix : Default (H.263)
Codec ID : XVID
Codec ID/Hint : XviD
Duration : 1h 21mn
Bit rate : 953 Kbps
Width : 592 pixels
Height : 240 pixels
Display aspect ratio : 2.467
Frame rate : 25.000 fps
Color space : YUV
Chroma subsampling : 4:2:0
Bit depth : 8 bits
Scan type : Progressive
Compression mode : Lossy
Bits/(Pixel*Frame) : 0.268
Stream size : 556 MiB (80%)
Writing library : XviD 1.0.2 (UTC 2004-08-29)

Audio

ID : 1
Format : MPEG Audio
Format version : Version 1
Format profile : Layer 3
Mode : Joint stereo
Mode extension : MS Stereo
Codec ID : 55
Codec ID/Hint : MP3
Duration : 1h 21mn
Bit rate mode : Variable
Bit rate : 224 Kbps
Channel(s) : 2 channels
Sampling rate : 48.0 KHz
Compression mode : Lossy
Stream size : 132 MiB (19%)
Alignment : Aligned on interleaves
Interleave, duration : 24 ms (0.60 video frame)
Interleave, preload duration : 398 ms

Descarga
US & FJ

Servidor #1

Parte 1
http://www.filejungle.com/f/ZRTJcp/O....avi.part1.rar
Parte 2
http://www.filejungle.com/f/NHxE3z/O....avi.part2.rar
Parte 3
http://www.filejungle.com/f/URbYsN/O....avi.part3.rar

Servidor #2

Parte 1
http://www.uploadstation.com/file/PF....avi.part1.rar
Parte 2
http://www.uploadstation.com/file/w4....avi.part2.rar
Parte 3
http://www.uploadstation.com/file/fz....avi.part3.rar

Nota: Si encuentras un link caído avísame para volverlo a subir




O2312 esta offline  
Antiguo 22/06/12, 19:49:11   #2
Moderador:
Zona Audiovisual
 
Avatar de jheialcazador
 
Fecha de Ingreso: mar 2012
Ubicación: BOGOTA
Edad: 23
Mensajes: 859
Temas: 230
Has agradecido: 1.568
Has sido agradecido 1.520 veces en 352 mensajes
Poder de Credibilidad: 3758
jheialcazador tiene una reputación que sobrepasa la famajheialcazador tiene una reputación que sobrepasa la famajheialcazador tiene una reputación que sobrepasa la famajheialcazador tiene una reputación que sobrepasa la famajheialcazador tiene una reputación que sobrepasa la famajheialcazador tiene una reputación que sobrepasa la famajheialcazador tiene una reputación que sobrepasa la famajheialcazador tiene una reputación que sobrepasa la famajheialcazador tiene una reputación que sobrepasa la famajheialcazador tiene una reputación que sobrepasa la famajheialcazador tiene una reputación que sobrepasa la fama
Reputación: 187340
Predeterminado Re: El guerrero sin nombre [DVDRip Animacion Castellano 2006 .Avi US & FJ]

El archivo no está disponible



__________________

DEJA TU GRANITO DE ARENA EN DÁ LAS GRACIAS
Dale Me gusta
Me puedes Seguir
jheialcazador esta offline  
Tema Cerrado

Etiquetas
2006, animacion, avi, castellano, dvdrip, el, fj, guerrero, nombre, sin


Usuarios activos actualmente viendo este tema: 1 (0 miembros y 1 visitantes)
 
Herramientas
Desplegado



El uso horario es GMT -5. La hora actual es: 03:17:38
Powered by vBulletin™ Version 3.8.6
Copyright © 2014 vBulletin Solutions, Inc. All rights reserved.
Traducción por vBHispano
vBulletin Skin by CompletevB
HagalePues.Net 2008 - 2014
SEO by vBSEO ©2011, Crawlability, Inc.