Dead space [DVDRip Animacion Castellano 2008 .Avi US & FJ] - Hagale Pues
Header Hágale Pues
Retroceder   Hagale Pues » Foros de conversación » Basura de Hagalepues
Portal Foro Temas de Hoy Registrarse Buscar




Dead space [DVDRip Animacion Castellano 2008 .Avi US & FJ]



Tema Cerrado
Herramientas
Antiguo 19/12/11, 13:24:30   #1
Baneado
 
Fecha de Ingreso: nov 2011
Ubicación: En las peliculas
Mensajes: 740
Temas: 726
Has agradecido: 0
Has sido agradecido 6 veces en 6 mensajes
Poder de Credibilidad: 0
O2312 es como un diamante en brutoO2312 es como un diamante en brutoO2312 es como un diamante en brutoO2312 es como un diamante en bruto
Reputación: 335
Predeterminado Dead space [DVDRip Animacion Castellano 2008 .Avi US & FJ]





Información del archivo en el servidor
Partes:
Servidores: US & FJ
Tamaño: 684 Mb

Sinopsis
Para la tripulación del USG Ishimura así es como el horror comienza: En una profunda excavación en un remoto planeta, una antigua reliquia religiosa –a la que se considera la prueba de la existencia de Dios, es desenterrada y llevada a bordo donde es
adorada por unos y despreciada por otros.

Caps





Ficha Tenica

Titulo Original: Dead Space: Downfall
Duración: 74 min.
País: Usa
Director: Chuck Patton
Guión: Warren Ellis
Productora: Film Roman
Género: Animación.

Datos de ripeo

General

Complete name : files/O2312DEADSPACECASTELLANO.avi
Format : AVI
Format/Info : Audio Video Interleave
File size : 684 MiB
Duration : 1h 11mn
Overall bit rate mode : Variable
Overall bit rate : 1 340 Kbps
Writing application : VirtualDubMod 1.5.4.1 (build 2178/release)
Writing library : VirtualDubMod build 2178/release

Video

ID : 0
Format : MPEG-4 Visual
Format profile : Advanced Simple@L5
Format settings, BVOP : 1
Format settings, QPel : No
Format settings, GMC : No warppoints
Format settings, Matrix : Custom
Codec ID : XVID
Codec ID/Hint : XviD
Duration : 1h 11mn
Bit rate : 1 210 Kbps
Width : 720 pixels
Height : 416 pixels
Display aspect ratio : 16:9
Frame rate : 25.000 fps
Color space : YUV
Chroma subsampling : 4:2:0
Bit depth : 8 bits
Scan type : Progressive
Compression mode : Lossy
Bits/(Pixel*Frame) : 0.162
Stream size : 617 MiB (90%)
Writing library : XviD 1.2.0.dev47 (UTC 2006-11-01)

Audio

ID : 1
Format : MPEG Audio
Format version : Version 1
Format profile : Layer 3
Mode : Joint stereo
Mode extension : MS Stereo
Codec ID : 55
Codec ID/Hint : MP3
Duration : 1h 11mn
Bit rate mode : Variable
Bit rate : 118 Kbps
Nominal bit rate : 128 Kbps
Channel(s) : 2 channels
Sampling rate : 48.0 KHz
Compression mode : Lossy
Stream size : 60.2 MiB (9%)
Alignment : Aligned on interleaves
Interleave, duration : 24 ms (0.60 video frame)
Interleave, preload duration : 508 ms
Writing library : LAME3.97
Encoding settings : -m j -V 4 -q 2 -lowpass 17 --abr 128
Language : Spanish

Descarga
US & FJ

Servidor #1

Parte 1
http://www.filejungle.com/f/BjDfDU/O....avi.part1.rar
Parte 2
http://www.filejungle.com/f/KXx3s5/O....avi.part2.rar
Parte 3
http://www.filejungle.com/f/QaAGJ6/O....avi.part3.rar

Servidor #2

Parte 1
http://www.uploadstation.com/file/FK....avi.part1.rar
Parte 2
http://www.uploadstation.com/file/Xv....avi.part2.rar
Parte 3
http://www.uploadstation.com/file/XG....avi.part3.rar

Nota: Si encuentras un link caído avísame para volverlo a subir




O2312 esta offline  
Antiguo 22/06/12, 19:49:21   #2
Moderador:
Zona Audiovisual
 
Avatar de jheialcazador
 
Fecha de Ingreso: mar 2012
Ubicación: BOGOTA
Edad: 23
Mensajes: 871
Temas: 242
Has agradecido: 1.575
Has sido agradecido 1.552 veces en 361 mensajes
Poder de Credibilidad: 3776
jheialcazador tiene una reputación que sobrepasa la famajheialcazador tiene una reputación que sobrepasa la famajheialcazador tiene una reputación que sobrepasa la famajheialcazador tiene una reputación que sobrepasa la famajheialcazador tiene una reputación que sobrepasa la famajheialcazador tiene una reputación que sobrepasa la famajheialcazador tiene una reputación que sobrepasa la famajheialcazador tiene una reputación que sobrepasa la famajheialcazador tiene una reputación que sobrepasa la famajheialcazador tiene una reputación que sobrepasa la famajheialcazador tiene una reputación que sobrepasa la fama
Reputación: 188140
Predeterminado Re: Dead space [DVDRip Animacion Castellano 2008 .Avi US & FJ]

El archivo no está disponible



__________________

DEJA TU GRANITO DE ARENA EN DÁ LAS GRACIAS
Dale Me gusta
Me puedes Seguir
jheialcazador esta offline  
Tema Cerrado

Etiquetas
2008, animacion, avi, castellano, dead, dvdrip, fj, space


Usuarios activos actualmente viendo este tema: 1 (0 miembros y 1 visitantes)
 
Herramientas
Desplegado



El uso horario es GMT -5. La hora actual es: 05:24:55
Powered by vBulletin™ Version 3.8.6
Copyright © 2014 vBulletin Solutions, Inc. All rights reserved.
Traducción por vBHispano
vBulletin Skin by CompletevB
HagalePues.Net 2008 - 2014
SEO by vBSEO ©2011, Crawlability, Inc.