Applesed [DVDRip Animacion Castellano 2004 .Avi US & FJ] - Hagale Pues
Header Hágale Pues
Retroceder   Hagale Pues » Foros de conversación » Basura de Hagalepues
Portal Foro Temas de Hoy Registrarse Buscar




Applesed [DVDRip Animacion Castellano 2004 .Avi US & FJ]



Tema Cerrado
Herramientas
Antiguo 19/12/11, 13:01:40   #1
Baneado
 
Fecha de Ingreso: nov 2011
Ubicación: En las peliculas
Mensajes: 740
Temas: 726
Has agradecido: 0
Has sido agradecido 6 veces en 6 mensajes
Poder de Credibilidad: 0
O2312 es como un diamante en brutoO2312 es como un diamante en brutoO2312 es como un diamante en brutoO2312 es como un diamante en bruto
Reputación: 335
Predeterminado Applesed [DVDRip Animacion Castellano 2004 .Avi US & FJ]





Información del archivo en el servidor
Partes: 3
Servidores: US & FJ
Tamaño: 700 Mb

Sinopsis
Deunan Knute ha pasado la mayor parte de su vida en el campo de batalla. Es rescatada y alojada
en la moderna ciudad de Utopía, donde se reencuentra con su viejo compañero Briareos, ahora convertido en un Cyborg. Utopía es una ciudad gobernada por los biorides, seres
creados genéticamente para no sentir emociones violentas. Están bajo
amenaza de aquellos que creen que su existencia es una aberración.

Caps





Ficha Tenica

Dirección hinji Aramaki
País:Japon
Año:2004
Duración:104 min.
Género:Animacion
Guión:Manga:
Masamune Shirow
Producción:John Woo
Música:Haruomi Hosono

Datos de ripeo

General

Complete name : files/O2312APPLESSEDCASTELLANO.avi
Format : AVI
Format/Info : Audio Video Interleave
File size : 700 MiB
Duration : 1h 45mn
Overall bit rate mode : Variable
Overall bit rate : 928 Kbps
Writing application : VirtualDubMod 1.5.10.1 (build 2439/release)
Writing library : VirtualDubMod build 2439/release

Video

ID : 0
Format : MPEG-4 Visual
Format profile : Simple@L3
Format settings, BVOP : 1
Format settings, QPel : No
Format settings, GMC : No warppoints
Format settings, Matrix : Default (H.263)
Codec ID : XVID
Codec ID/Hint : XviD
Duration : 1h 45mn
Bit rate : 794 Kbps
Width : 512 pixels
Height : 272 pixels
Display aspect ratio : 1.882
Frame rate : 25.000 fps
Color space : YUV
Chroma subsampling : 4:2:0
Bit depth : 8 bits
Scan type : Progressive
Compression mode : Lossy
Bits/(Pixel*Frame) : 0.228
Stream size : 599 MiB (86%)
Writing library : XviD 1.0.3 (UTC 2004-12-20)

Audio

ID : 1
Format : MPEG Audio
Format version : Version 1
Format profile : Layer 3
Mode : Dual mono
Codec ID : 55
Codec ID/Hint : MP3
Duration : 1h 45mn
Bit rate mode : Variable
Bit rate : 122 Kbps
Nominal bit rate : 128 Kbps
Channel(s) : 2 channels
Sampling rate : 48.0 KHz
Compression mode : Lossy
Stream size : 91.7 MiB (13%)
Alignment : Aligned on interleaves
Interleave, duration : 24 ms (0.60 video frame)
Interleave, preload duration : 457 ms
Writing library : LAME3.96r
Encoding settings : -m d -V 4 -q 3 -lowpass 17.5 --abr 128

Descarga
US & FJ

Servidor #1

Parte 1
http://www.filejungle.com/f/KfmHj6/O....avi.part1.rar
Parte 2
http://www.filejungle.com/f/k45wnU/O....avi.part2.rar
Parte 3
http://www.filejungle.com/f/ktSnhG/O....avi.part3.rar

Servidor #2

Parte 1
http://www.uploadstation.com/file/PG....avi.part1.rar
Parte 2
http://www.uploadstation.com/file/Sh....avi.part2.rar
Parte 3
http://www.uploadstation.com/file/XD....avi.part3.rar

Nota: Si encuentras un link caído avísame para volverlo a subir




O2312 esta offline  
Antiguo 22/06/12, 19:49:36   #2
Moderador:
Zona Audiovisual
 
Avatar de jheialcazador
 
Fecha de Ingreso: mar 2012
Ubicación: BOGOTA
Edad: 23
Mensajes: 870
Temas: 241
Has agradecido: 1.575
Has sido agradecido 1.551 veces en 361 mensajes
Poder de Credibilidad: 3775
jheialcazador tiene una reputación que sobrepasa la famajheialcazador tiene una reputación que sobrepasa la famajheialcazador tiene una reputación que sobrepasa la famajheialcazador tiene una reputación que sobrepasa la famajheialcazador tiene una reputación que sobrepasa la famajheialcazador tiene una reputación que sobrepasa la famajheialcazador tiene una reputación que sobrepasa la famajheialcazador tiene una reputación que sobrepasa la famajheialcazador tiene una reputación que sobrepasa la famajheialcazador tiene una reputación que sobrepasa la famajheialcazador tiene una reputación que sobrepasa la fama
Reputación: 188115
Predeterminado Re: Applesed [DVDRip Animacion Castellano 2004 .Avi US & FJ]

El archivo no está disponible



__________________

DEJA TU GRANITO DE ARENA EN DÁ LAS GRACIAS
Dale Me gusta
Me puedes Seguir
jheialcazador esta offline  
Tema Cerrado

Etiquetas
2004, animacion, applesed, avi, castellano, dvdrip, fj


Usuarios activos actualmente viendo este tema: 1 (0 miembros y 1 visitantes)
 
Herramientas
Desplegado



El uso horario es GMT -5. La hora actual es: 01:23:57
Powered by vBulletin™ Version 3.8.6
Copyright © 2014 vBulletin Solutions, Inc. All rights reserved.
Traducción por vBHispano
vBulletin Skin by CompletevB
HagalePues.Net 2008 - 2014
SEO by vBSEO ©2011, Crawlability, Inc.