Winx club secreto del reyno perdido [DVDRip Animacion Castellano 2007 .Avi US & FJ] - Hagale Pues
Header Hágale Pues
Retroceder   Hagale Pues » Foros de conversación » Basura de Hagalepues
Portal Foro Temas de Hoy Registrarse Buscar




Winx club secreto del reyno perdido [DVDRip Animacion Castellano 2007 .Avi US & FJ]



Tema Cerrado
Herramientas
Antiguo 18/12/11, 14:55:08   #1
Baneado
 
Fecha de Ingreso: nov 2011
Ubicación: En las peliculas
Mensajes: 740
Temas: 726
Has agradecido: 0
Has sido agradecido 6 veces en 6 mensajes
Poder de Credibilidad: 0
O2312 es como un diamante en brutoO2312 es como un diamante en brutoO2312 es como un diamante en brutoO2312 es como un diamante en bruto
Reputación: 335
Predeterminado Winx club secreto del reyno perdido [DVDRip Animacion Castellano 2007 .Avi US & FJ]





Información del archivo en el servidor
Partes: 3
Servidores: US & FJ
Tamaño: 705 Mb

Sinopsis
Hace 16 años, los magos guerreros más poderosos de la Dimensión Mágica se sacrificaron para
luchar contra el mal absoluto. Ahora, el destino de todo un reino se encuentra en manos
de una joven muchacha: Bloom, el hada con el signo del Dragón.

Caps





Ficha Tenica

ÍTULO ORIGINAL
Winx club: Il segreto del regno perduto
AÑO 2007
DURACIÓN 85 min.
PAÍS [Italia]
DIRECTOR Iginio Straffi
GUIÓN Iginio Straffi
MÚSICA Paolo Baglio
FOTOGRAFÍA Animation
REPARTO Animation
PRODUCTORA Rainbow S.r.l
GÉNERO Animación.
Aventuras. Fantástico. Infantil

Datos de ripeo

General

Complete name : files/O2312WINXCLUBELSECRETODELREINOPERDIDOCASTELLANO.av i
Format : AVI
Format/Info : Audio Video Interleave
File size : 705 MiB
Duration : 1h 29mn
Overall bit rate : 1 106 Kbps
Writing application : VirtualDubMod 1.5.10.2 (build 2540/release)
Writing library : VirtualDubMod build 2540/release

Video

ID : 0
Format : MPEG-4 Visual
Format profile : Advanced Simple@L5
Format settings, BVOP : Yes
Format settings, QPel : No
Format settings, GMC : No warppoints
Format settings, Matrix : Default (H.263)
Muxing mode : Packed bitstream
Codec ID : XVID
Codec ID/Hint : XviD
Duration : 1h 29mn
Bit rate : 965 Kbps
Width : 640 pixels
Height : 272 pixels
Display aspect ratio : 2.35:1
Frame rate : 25.000 fps
Color space : YUV
Chroma subsampling : 4:2:0
Bit depth : 8 bits
Scan type : Progressive
Bits/(Pixel*Frame) : 0.222
Stream size : 615 MiB (87%)
Writing library : XviD 1.2.1 (UTC 2008-12-04)

Audio

ID : 1
Format : MPEG Audio
Format version : Version 1
Format profile : Layer 3
Mode : Joint stereo
Mode extension : MS Stereo
Codec ID : 55
Codec ID/Hint : MP3
Duration : 1h 29mn
Bit rate mode : Variable
Bit rate : 128 Kbps
Channel(s) : 2 channels
Sampling rate : 48.0 KHz
Stream size : 81.7 MiB (12%)
Alignment : Aligned on interleaves
Interleave, duration : 24 ms (0.60 video frame)
Interleave, preload duration : 362 ms
Writing library : LAME3.90.
Encoding settings : -m j -V 4 -q 2 -lowpass 17.6 --abr 128

Descarga
US & FJ

Servidor #1

Parte 1
http://www.filejungle.com/f/6KqAQZ/O....avi.part1.rar
Parte 2
http://www.filejungle.com/f/AxPpMM/O....avi.part2.rar
Parte 3
http://www.filejungle.com/f/tP8fkq/O....avi.part3.rar

Servidor #2

Parte 1
http://www.uploadstation.com/file/Hu....avi.part1.rar
Parte 2
http://www.uploadstation.com/file/Mc....avi.part2.rar
Parte 3
http://www.uploadstation.com/file/z4....avi.part3.rar

Nota: Si encuentras un link caído avísame para volverlo a subir




O2312 esta offline  
Antiguo 22/06/12, 19:50:40   #2
Moderador:
Zona Audiovisual
 
Avatar de jheialcazador
 
Fecha de Ingreso: mar 2012
Ubicación: BOGOTA
Edad: 23
Mensajes: 871
Temas: 242
Has agradecido: 1.575
Has sido agradecido 1.552 veces en 361 mensajes
Poder de Credibilidad: 3776
jheialcazador tiene una reputación que sobrepasa la famajheialcazador tiene una reputación que sobrepasa la famajheialcazador tiene una reputación que sobrepasa la famajheialcazador tiene una reputación que sobrepasa la famajheialcazador tiene una reputación que sobrepasa la famajheialcazador tiene una reputación que sobrepasa la famajheialcazador tiene una reputación que sobrepasa la famajheialcazador tiene una reputación que sobrepasa la famajheialcazador tiene una reputación que sobrepasa la famajheialcazador tiene una reputación que sobrepasa la famajheialcazador tiene una reputación que sobrepasa la fama
Reputación: 188140
Predeterminado Re: Winx club secreto del reyno perdido [DVDRip Animacion Castellano 2007 .Avi US & FJ]

El archivo no está disponible



__________________

DEJA TU GRANITO DE ARENA EN DÁ LAS GRACIAS
Dale Me gusta
Me puedes Seguir
jheialcazador esta offline  
Tema Cerrado

Etiquetas
2007, animacion, avi, castellano, club, del, dvdrip, fj, perdido, reyno, secreto, winx


Usuarios activos actualmente viendo este tema: 1 (0 miembros y 1 visitantes)
 
Herramientas
Desplegado



El uso horario es GMT -5. La hora actual es: 14:26:30
Powered by vBulletin™ Version 3.8.6
Copyright © 2014 vBulletin Solutions, Inc. All rights reserved.
Traducción por vBHispano
vBulletin Skin by CompletevB
HagalePues.Net 2008 - 2014
SEO by vBSEO ©2011, Crawlability, Inc.