Ultimate avengers [DVDRip Animacion Castellano 2006 .Avi US & FJ] - Hagale Pues
Header Hágale Pues
Retroceder   Hagale Pues » Foros de conversación » Basura de Hagalepues
Portal Foro Temas de Hoy Registrarse Buscar




Ultimate avengers [DVDRip Animacion Castellano 2006 .Avi US & FJ]



Tema Cerrado
Herramientas
Antiguo 18/12/11, 14:49:13   #1
Baneado
 
Fecha de Ingreso: nov 2011
Ubicación: En las peliculas
Mensajes: 740
Temas: 726
Has agradecido: 0
Has sido agradecido 6 veces en 6 mensajes
Poder de Credibilidad: 0
O2312 es como un diamante en brutoO2312 es como un diamante en brutoO2312 es como un diamante en brutoO2312 es como un diamante en bruto
Reputación: 335
Predeterminado Ultimate avengers [DVDRip Animacion Castellano 2006 .Avi US & FJ]





Información del archivo en el servidor
Partes: 3
Servidores: US & FJ
Tamaño: 700 Mb

Sinopsis
Los héroes más poderosos de la Tierra: Capitán America, Iron Man, Thor, La Avispa, Viuda
Negra, El Hombre Gigante y Hulk, se reúnen para salvar de nuevo a la humanidad.
La misteriosa Wakanda en el oscuro corazón de Africa aislada
y desconocida para la mayoría del mundo, esta siendo
invadida por brutales invasores alienígenas, que han
ocupando todo el cielo y controlando todo el
territorio, buscando lo que
está sepultado bajo su tierra

Caps





Ficha Tenica

Título Original:
Ultimate Avengers
2 The rise of the Black Panther
Género: Animación
Acción / Aventura
Ciencia Ficción
Año: 2006
Director: Will Meugniot
Dick Sebast
Guion: Bryan Hitch
Greg Johnson
Duración: 72 Min

Datos de ripeo

General

Complete name : files/O2312ULTIMATEAVENGERS2CASTELLANO.avi
Format : AVI
Format/Info : Audio Video Interleave
File size : 700 MiB
Duration : 1h 9mn
Overall bit rate : 1 402 Kbps
Writing application : VirtualDubMod 1.5.4.1 (build 2178/release)
Writing library : VirtualDubMod build 2178/release

Video

ID : 0
Format : MPEG-4 Visual
Format profile : Advanced Simple@L5
Format settings, BVOP : Yes
Format settings, QPel : No
Format settings, GMC : No warppoints
Format settings, Matrix : Custom
Codec ID : XVID
Codec ID/Hint : XviD
Duration : 1h 9mn
Bit rate : 947 Kbps
Width : 608 pixels
Height : 336 pixels
Display aspect ratio : 16:9
Frame rate : 25.000 fps
Color space : YUV
Chroma subsampling : 4:2:0
Bit depth : 8 bits
Scan type : Progressive
Bits/(Pixel*Frame) : 0.186
Stream size : 473 MiB (68%)
Writing library : XviD 1.2.0.dev47 (UTC 2006-11-01)

Audio

ID : 1
Format : AC-3
Format/Info : Audio Coding 3
Mode extension : CM (complete main)
Codec ID : 2000
Duration : 1h 9mn
Bit rate mode : Constant
Bit rate : 448 Kbps
Channel(s) : 6 channels
Channel positions : Front: L C R, Side: L R, LFE
Sampling rate : 48.0 KHz
Bit depth : 16 bits
Stream size : 224 MiB (32%)
Alignment : Aligned on interleaves
Interleave, duration : 96 ms (2.40 video frames)
Interleave, preload duration : 96 ms
Language : Spanish

Descarga
US & FJ

Servidor #1

Parte 1
http://www.filejungle.com/f/FzXfVM/O....avi.part1.rar
Parte 2
http://www.filejungle.com/f/PDxcmY/O....avi.part2.rar
Parte 3
http://www.filejungle.com/f/cEp22x/O....avi.part3.rar

Servidor #2

Parte 1
http://www.uploadstation.com/file/gq....avi.part1.rar
Parte 2
http://www.uploadstation.com/file/Ky....avi.part2.rar
Parte 3
http://www.uploadstation.com/file/RR....avi.part3.rar
Ver Online
http://videozer.com/video/5ZQM7bZa

Nota: Si encuentras un link caído avísame para volverlo a subir




O2312 esta offline  
Antiguo 22/06/12, 19:50:49   #2
Moderador:
Zona Audiovisual
 
Avatar de jheialcazador
 
Fecha de Ingreso: mar 2012
Ubicación: BOGOTA
Edad: 23
Mensajes: 869
Temas: 235
Has agradecido: 1.575
Has sido agradecido 1.554 veces en 361 mensajes
Poder de Credibilidad: 3777
jheialcazador tiene una reputación que sobrepasa la famajheialcazador tiene una reputación que sobrepasa la famajheialcazador tiene una reputación que sobrepasa la famajheialcazador tiene una reputación que sobrepasa la famajheialcazador tiene una reputación que sobrepasa la famajheialcazador tiene una reputación que sobrepasa la famajheialcazador tiene una reputación que sobrepasa la famajheialcazador tiene una reputación que sobrepasa la famajheialcazador tiene una reputación que sobrepasa la famajheialcazador tiene una reputación que sobrepasa la famajheialcazador tiene una reputación que sobrepasa la fama
Reputación: 188190
Predeterminado Re: Ultimate avengers [DVDRip Animacion Castellano 2006 .Avi US & FJ]

El archivo no está disponible



__________________

DEJA TU GRANITO DE ARENA EN DÁ LAS GRACIAS
Dale Me gusta
Me puedes Seguir
jheialcazador esta offline  
Tema Cerrado

Etiquetas
2006, animacion, avengers, avi, castellano, dvdrip, fj, ultimate


Usuarios activos actualmente viendo este tema: 1 (0 miembros y 1 visitantes)
 
Herramientas
Desplegado



El uso horario es GMT -5. La hora actual es: 02:51:39
Powered by vBulletin™ Version 3.8.6
Copyright © 2014 vBulletin Solutions, Inc. All rights reserved.
Traducción por vBHispano
vBulletin Skin by CompletevB
HagalePues.Net 2008 - 2014
SEO by vBSEO ©2011, Crawlability, Inc.