Titan [DVDRip Animacion Castellano 2000 .Avi US & FJ] - Hagale Pues
Header Hágale Pues
Retroceder   Hagale Pues » Foros de conversación » Basura de Hagalepues
Portal Foro Temas de Hoy Registrarse Buscar




Titan [DVDRip Animacion Castellano 2000 .Avi US & FJ]



Tema Cerrado
Herramientas
Antiguo 18/12/11, 14:44:08   #1
Baneado
 
Fecha de Ingreso: nov 2011
Ubicación: En las peliculas
Mensajes: 740
Temas: 726
Has agradecido: 0
Has sido agradecido 6 veces en 6 mensajes
Poder de Credibilidad: 0
O2312 es como un diamante en brutoO2312 es como un diamante en brutoO2312 es como un diamante en brutoO2312 es como un diamante en bruto
Reputación: 335
Predeterminado Titan [DVDRip Animacion Castellano 2000 .Avi US & FJ]





Información del archivo en el servidor
Partes: 4
Servidores: US & FJ
Tamaño: 787 Mb

Sinopsis
Año 3208. La Tierra está siendo atacada por los malvados alienígenas Drej, una raza altamente
evolucionada hecha de energía pura. En medio del caos, miles de naves han de despegar de la
superficie de la Tierra; el científico Sam Tucker llama a su hijo, Cale, un niño
de cinco años, y le manda lejos de la Tierra en una nave espacial
para que esté a salvo.

Caps





Ficha Tenica

TÍTULO ORIGINAL Titan A.E.
AÑO 2000
DURACIÓN 90 min. Trailers/Vídeos
DIRECTOR Don Bluth, Gary Goldman
GUIÓN Ben Edlund, John August
MÚSICA Graeme Revell
FOTOGRAFÍA Animation
REPARTO Animation
PRODUCTORA 20th Century Fox
GÉNERO Animación.
Ciencia ficción.
Aventuras |
Aventura espacial

Datos de ripeo

General

Complete name : files/O2312TITANCASTELLANO.avi
Format : AVI
Format/Info : Audio Video Interleave
File size : 787 MiB
Duration : 1h 31mn
Overall bit rate : 1 207 Kbps
Writing application : MEncoder SVN-r29352(20090610-gcc4.3.3)
Writing library : MPlayer

Video

ID : 0
Format : MPEG-4 Visual
Format profile : Advanced Simple@L5
Format settings, BVOP : Yes
Format settings, QPel : No
Format settings, GMC : No warppoints
Format settings, Matrix : Default (H.263)
Codec ID : XVID
Codec ID/Hint : XviD
Duration : 1h 31mn
Bit rate : 1 067 Kbps
Width : 608 pixels
Height : 272 pixels
Display aspect ratio : 2.25:1
Frame rate : 25.000 fps
Color space : YUV
Chroma subsampling : 4:2:0
Bit depth : 8 bits
Scan type : Progressive
Bits/(Pixel*Frame) : 0.258
Stream size : 695 MiB (88%)
Writing library : XviD 1.2.1 (UTC 2008-12-04)

Audio

ID : 1
Format : MPEG Audio
Format version : Version 1
Format profile : Layer 3
Mode : Joint stereo
Codec ID : 55
Codec ID/Hint : MP3
Duration : 1h 31mn
Bit rate mode : Constant
Bit rate : 128 Kbps
Channel(s) : 2 channels
Sampling rate : 44.1 KHz
Video delay : 40ms
Stream size : 83.4 MiB (11%)
Alignment : Aligned on interleaves
Interleave, duration : 26 ms (0.65 video frame)
Interleave, preload duration : 522 ms
Writing library : LAME3.98

Descarga
US & FJ

Servidor #1

Parte 1
http://www.filejungle.com/f/CPRrwx/O....avi.part1.rar
Parte 2
http://www.filejungle.com/f/KDYyC9/O....avi.part2.rar
Parte 3
http://www.filejungle.com/f/eqk9va/O....avi.part3.rar
Parte 4
http://www.filejungle.com/f/sS7mrR/O....avi.part4.rar

Servidor #2

Parte 1
http://www.uploadstation.com/file/TR....avi.part1.rar
Parte 2
http://www.uploadstation.com/file/9s....avi.part2.rar
Parte 3
http://www.uploadstation.com/file/9A....avi.part3.rar
Parte 4
http://www.uploadstation.com/file/5S....avi.part4.rar

Nota: Si encuentras un link caído avísame para volverlo a subir




O2312 esta offline  
Antiguo 22/06/12, 19:50:57   #2
Moderador:
Zona Audiovisual
 
Avatar de jheialcazador
 
Fecha de Ingreso: mar 2012
Ubicación: BOGOTA
Edad: 23
Mensajes: 871
Temas: 242
Has agradecido: 1.575
Has sido agradecido 1.552 veces en 361 mensajes
Poder de Credibilidad: 3776
jheialcazador tiene una reputación que sobrepasa la famajheialcazador tiene una reputación que sobrepasa la famajheialcazador tiene una reputación que sobrepasa la famajheialcazador tiene una reputación que sobrepasa la famajheialcazador tiene una reputación que sobrepasa la famajheialcazador tiene una reputación que sobrepasa la famajheialcazador tiene una reputación que sobrepasa la famajheialcazador tiene una reputación que sobrepasa la famajheialcazador tiene una reputación que sobrepasa la famajheialcazador tiene una reputación que sobrepasa la famajheialcazador tiene una reputación que sobrepasa la fama
Reputación: 188140
Predeterminado Re: Titan [DVDRip Animacion Castellano 2000 .Avi US & FJ]

El archivo no está disponible



__________________

DEJA TU GRANITO DE ARENA EN DÁ LAS GRACIAS
Dale Me gusta
Me puedes Seguir
jheialcazador esta offline  
Tema Cerrado

Etiquetas
2000, animacion, avi, castellano, dvdrip, fj, titan


Usuarios activos actualmente viendo este tema: 1 (0 miembros y 1 visitantes)
 
Herramientas
Desplegado



El uso horario es GMT -5. La hora actual es: 18:50:59
Powered by vBulletin™ Version 3.8.6
Copyright © 2014 vBulletin Solutions, Inc. All rights reserved.
Traducción por vBHispano
vBulletin Skin by CompletevB
HagalePues.Net 2008 - 2014
SEO by vBSEO ©2011, Crawlability, Inc.