Surcadores del cielo [DVDRip Animacion Castellano 2008 .Avi US & FJ] - Hagale Pues
Header Hágale Pues
Retroceder   Hagale Pues » Foros de conversación » Basura de Hagalepues
Portal Foro Temas de Hoy Registrarse Buscar




Surcadores del cielo [DVDRip Animacion Castellano 2008 .Avi US & FJ]



Tema Cerrado
Herramientas
Antiguo 18/12/11, 14:39:06   #1
Baneado
 
Fecha de Ingreso: nov 2011
Ubicación: En las peliculas
Mensajes: 740
Temas: 726
Has agradecido: 0
Has sido agradecido 6 veces en 6 mensajes
Poder de Credibilidad: 0
O2312 es como un diamante en brutoO2312 es como un diamante en brutoO2312 es como un diamante en brutoO2312 es como un diamante en bruto
Reputación: 335
Predeterminado Surcadores del cielo [DVDRip Animacion Castellano 2008 .Avi US & FJ]





Información del archivo en el servidor
Partes: 6
Servidores: US & FJ
Tamaño: 1.42 Gb

Sinopsis
Imaginemos un tiempo actual alternativo en el que al fin se ha instaurado la paz. Sin
embargo, para que esta situación sea sostenible, es necesario que se desarrolle
una guerra que puede ser contemplada como un espectáculo por televisión.

Caps





Ficha Tenica

TULO ORIGINAL
Sukai kurora (The Sky Crawlers)
AÑO 2008 Ver
trailer externo
DURACIÓN 122 min.
Sugerir trailer/vídeo
PAÍS Sección visual
DIRECTOR Mamoru Oshii
GUIÓN Chihiro Itou
(Novela: Hiroshi Mori)
MÚSICA Kenji Kawai
FOTOGRAFÍA Animation
REPARTO Animation
PRODUCTORA Production
PREMIOS 2008: Festival
de Venecia: Nominada al
León de Oro
2008 : Festival de
Sitges: Mejor banda
GÉNERO Animación.
Aventuras. Bélico

Datos de ripeo

General

Complete name : files/O2312SURCADORESDELCIELOCASTELLANO.avi
Format : AVI
Format/Info : Audio Video Interleave
File size : 1.42 GiB
Duration : 1h 56mn
Overall bit rate : 1 749 Kbps
Writing application : VirtualDubMod 1.5.10.2 (build 2542/release)
Writing library : VirtualDubMod build 2542/release

Video

ID : 0
Format : MPEG-4 Visual
Format profile : Advanced Simple@L5
Format settings, BVOP : Yes
Format settings, QPel : No
Format settings, GMC : No warppoints
Format settings, Matrix : Default (MPEG)
Codec ID : XVID
Codec ID/Hint : XviD
Duration : 1h 56mn
Bit rate : 1 291 Kbps
Width : 684 pixels
Height : 372 pixels
Display aspect ratio : 16:9
Frame rate : 25.000 fps
Color space : YUV
Chroma subsampling : 4:2:0
Bit depth : 8 bits
Scan type : Progressive
Bits/(Pixel*Frame) : 0.203
Stream size : 1.05 GiB (74%)
Writing library : XviD 1.2.1 (UTC 2008-12-04)

Audio

ID : 1
Format : AC-3
Format/Info : Audio Coding 3
Mode extension : CM (complete main)
Codec ID : 2000
Duration : 1h 56mn
Bit rate mode : Constant
Bit rate : 448 Kbps
Channel(s) : 6 channels
Channel positions : Front: L C R, Side: L R, LFE
Sampling rate : 48.0 KHz
Bit depth : 16 bits
Stream size : 374 MiB (26%)
Alignment : Split accross interleaves
Interleave, duration : 40 ms (1.00 video frame)
Interleave, preload duration : 500 ms

Descarga
US & FJ

Servidor #1

Parte 1
http://www.filejungle.com/f/6vs43n/O....avi.part1.rar
Parte 2
http://www.filejungle.com/f/wC3vrP/O....avi.part2.rar
Parte 3
http://www.filejungle.com/f/p5MpDk/O....avi.part3.rar
Parte 4
http://www.filejungle.com/f/sNpB5t/O....avi.part4.rar
Parte 5
http://www.filejungle.com/f/FC3cY2/O....avi.part5.rar
Parte 6
http://www.filejungle.com/f/KzAp5W/O....avi.part6.rar

Servidor #2

Parte 1
http://www.uploadstation.com/file/Ev....avi.part1.rar
Parte 2
http://www.uploadstation.com/file/8T....avi.part2.rar
Parte 3
http://www.uploadstation.com/file/cg....avi.part3.rar
Parte 4
http://www.uploadstation.com/file/yS....avi.part4.rar
Parte 5
http://www.uploadstation.com/file/Kg....avi.part5.rar
Parte 6
http://www.uploadstation.com/file/VP....avi.part6.rar

Nota: Si encuentras un link caído avísame para volverlo a subir




O2312 esta offline  
Antiguo 22/06/12, 19:51:10   #2
Moderador:
Zona Audiovisual
 
Avatar de jheialcazador
 
Fecha de Ingreso: mar 2012
Ubicación: BOGOTA
Edad: 23
Mensajes: 859
Temas: 230
Has agradecido: 1.568
Has sido agradecido 1.520 veces en 352 mensajes
Poder de Credibilidad: 3758
jheialcazador tiene una reputación que sobrepasa la famajheialcazador tiene una reputación que sobrepasa la famajheialcazador tiene una reputación que sobrepasa la famajheialcazador tiene una reputación que sobrepasa la famajheialcazador tiene una reputación que sobrepasa la famajheialcazador tiene una reputación que sobrepasa la famajheialcazador tiene una reputación que sobrepasa la famajheialcazador tiene una reputación que sobrepasa la famajheialcazador tiene una reputación que sobrepasa la famajheialcazador tiene una reputación que sobrepasa la famajheialcazador tiene una reputación que sobrepasa la fama
Reputación: 187340
Predeterminado Re: Surcadores del cielo [DVDRip Animacion Castellano 2008 .Avi US & FJ]

El archivo no está disponible



__________________

DEJA TU GRANITO DE ARENA EN DÁ LAS GRACIAS
Dale Me gusta
Me puedes Seguir
jheialcazador esta offline  
Tema Cerrado

Etiquetas
2008, animacion, avi, castellano, cielo, del, dvdrip, fj, surcadores


Usuarios activos actualmente viendo este tema: 1 (0 miembros y 1 visitantes)
 
Herramientas
Desplegado



El uso horario es GMT -5. La hora actual es: 00:55:59
Powered by vBulletin™ Version 3.8.6
Copyright © 2014 vBulletin Solutions, Inc. All rights reserved.
Traducción por vBHispano
vBulletin Skin by CompletevB
HagalePues.Net 2008 - 2014
SEO by vBSEO ©2011, Crawlability, Inc.