Steamboy [DVDRip Animacion Castellano 2004 .Avi US & FJ] - Hagale Pues
Header Hágale Pues
Retroceder   Hagale Pues » Foros de conversación » Basura de Hagalepues
Portal Foro Temas de Hoy Registrarse Buscar




Steamboy [DVDRip Animacion Castellano 2004 .Avi US & FJ]



Tema Cerrado
Herramientas
Antiguo 18/12/11, 14:31:37   #1
Baneado
 
Fecha de Ingreso: nov 2011
Ubicación: En las peliculas
Mensajes: 740
Temas: 726
Has agradecido: 0
Has sido agradecido 6 veces en 6 mensajes
Poder de Credibilidad: 0
O2312 es como un diamante en brutoO2312 es como un diamante en brutoO2312 es como un diamante en brutoO2312 es como un diamante en bruto
Reputación: 335
Predeterminado Steamboy [DVDRip Animacion Castellano 2004 .Avi US & FJ]





Información del archivo en el servidor
Partes: 3
Servidores: US & FJ
Tamaño: 700 mb

Sinopsis
En la Inglaterra victoriana un joven inventor llamado Ray recibe una misteriosa bola metálica
de su abuelo científico, Lloyd. Desde ese momento, Ray se ve empujado a un mundo de
aventuras e intrigas increíbles. La bola metálica es, de hecho, una “bola de vapor”
el corazón de un misterioso y siniestro “castillo de vapor”
y la clave secreta de una fuerza de poder incomparable.
Pero hay varias organizaciones poderosas ansiosas
por capturar la “bola de vapor” y Ray debe
decidir cual de esas organizaciones
representa el bien y cual el mal.

Caps





Ficha Tenica

TÍTULO ORIGINAL Steamboy
AÑO 2004
DURACIÓN 126 min. Trailers/Vídeos
PAÍS Sección visual
DIRECTOR Katsuhiro Ôtomo
GUIÓN Katsuhiro Ôtomo & Sadayuki Murai
MÚSICA Steve Jablonsky
FOTOGRAFÍA Animation
REPARTO Animation
PRODUCTORA Steamboy Committee
PREMIOS 2004: Sitges:
Mejor película de animación
GÉNERO Animación. Ciencia ficción

Datos de ripeo

General

Complete name : files/O2312STEAMBOYCASTELLANO.avi
Format : AVI
Format/Info : Audio Video Interleave
File size : 700 MiB
Duration : 2h 1mn
Overall bit rate : 807 Kbps

Video

ID : 0
Format : MPEG-4 Visual
Format profile : Advanced Simple@L5
Format settings, BVOP : Yes
Format settings, QPel : No
Format settings, GMC : No warppoints
Format settings, Matrix : Default (MPEG)
Codec ID : XVID
Codec ID/Hint : XviD
Duration : 2h 1mn
Bit rate : 666 Kbps
Width : 512 pixels
Height : 272 pixels
Display aspect ratio : 1.882
Frame rate : 25.000 fps
Color space : YUV
Chroma subsampling : 4:2:0
Bit depth : 8 bits
Scan type : Progressive
Bits/(Pixel*Frame) : 0.191
Stream size : 578 MiB (83%)
Writing library : XviD 1.1.0 Beta2 (UTC 2005-04-04)

Audio

ID : 1
Format : MPEG Audio
Format version : Version 1
Format profile : Layer 3
Mode : Joint stereo
Codec ID : 55
Codec ID/Hint : MP3
Duration : 2h 1mn
Bit rate mode : Variable
Bit rate : 128 Kbps
Channel(s) : 2 channels
Sampling rate : 48.0 KHz
Stream size : 111 MiB (16%)
Alignment : Aligned on interleaves
Interleave, duration : 24 ms (0.60 video frame)
Interleave, preload duration : 144 ms
Title : Audio
Writing library : LAME3.90.
Encoding settings : -m j -V 4 -q 2 -lowpass 17.6 --abr 12

Descarga
US & FJ

Servidor #1

Parte 1
http://www.filejungle.com/f/GFAY68/O....avi.part1.rar
Parte 2
http://www.filejungle.com/f/Wt3yHb/O....avi.part2.rar
Parte 3
http://www.filejungle.com/f/sYB7Xb/O....avi.part3.rar

Servidor #2

Parte 1
http://www.uploadstation.com/file/dy....avi.part1.rar
Parte 2
http://www.uploadstation.com/file/kH....avi.part2.rar
Parte 3
http://www.uploadstation.com/file/KY....avi.part3.rar

Nota: Si encuentras un link caído avísame para volverlo a subir




O2312 esta offline  
Antiguo 22/06/12, 19:51:25   #2
Moderador:
Zona Audiovisual
 
Avatar de jheialcazador
 
Fecha de Ingreso: mar 2012
Ubicación: BOGOTA
Edad: 23
Mensajes: 871
Temas: 242
Has agradecido: 1.575
Has sido agradecido 1.552 veces en 361 mensajes
Poder de Credibilidad: 3776
jheialcazador tiene una reputación que sobrepasa la famajheialcazador tiene una reputación que sobrepasa la famajheialcazador tiene una reputación que sobrepasa la famajheialcazador tiene una reputación que sobrepasa la famajheialcazador tiene una reputación que sobrepasa la famajheialcazador tiene una reputación que sobrepasa la famajheialcazador tiene una reputación que sobrepasa la famajheialcazador tiene una reputación que sobrepasa la famajheialcazador tiene una reputación que sobrepasa la famajheialcazador tiene una reputación que sobrepasa la famajheialcazador tiene una reputación que sobrepasa la fama
Reputación: 188140
Predeterminado Re: Steamboy [DVDRip Animacion Castellano 2004 .Avi US & FJ]

El archivo no está disponible



__________________

DEJA TU GRANITO DE ARENA EN DÁ LAS GRACIAS
Dale Me gusta
Me puedes Seguir
jheialcazador esta offline  
Tema Cerrado

Etiquetas
2004, animacion, avi, castellano, dvdrip, fj, steamboy


Usuarios activos actualmente viendo este tema: 1 (0 miembros y 1 visitantes)
 
Herramientas
Desplegado



El uso horario es GMT -5. La hora actual es: 09:54:09
Powered by vBulletin™ Version 3.8.6
Copyright © 2014 vBulletin Solutions, Inc. All rights reserved.
Traducción por vBHispano
vBulletin Skin by CompletevB
HagalePues.Net 2008 - 2014
SEO by vBSEO ©2011, Crawlability, Inc.