Shin chan mi perro es la bomba [DVDRip Animacion Castellano 2007 .Avi US & FJ] - Hagale Pues
Header Hágale Pues
Retroceder   Hagale Pues » Foros de conversación » Basura de Hagalepues
Portal Foro Temas de Hoy Registrarse Buscar




Shin chan mi perro es la bomba [DVDRip Animacion Castellano 2007 .Avi US & FJ]



Tema Cerrado
Herramientas
Antiguo 18/12/11, 15:24:15   #1
Baneado
 
Fecha de Ingreso: nov 2011
Ubicación: En las peliculas
Mensajes: 740
Temas: 726
Has agradecido: 0
Has sido agradecido 6 veces en 6 mensajes
Poder de Credibilidad: 0
O2312 es como un diamante en brutoO2312 es como un diamante en brutoO2312 es como un diamante en brutoO2312 es como un diamante en bruto
Reputación: 335
Predeterminado Shin chan mi perro es la bomba [DVDRip Animacion Castellano 2007 .Avi US & FJ]





Información del archivo en el servidor
Partes: 6
Servidores: US & FJ
Tamaño: 1.45 Gb

Sinopsis
Crayon Shin-chan: Arashi wo Yobu Utau Ketsu dake Bakudan! es el título de esta nueva aventura
de Shin chan y todos sus amigos, en la que Nevado toma un papel relevante
en esta nueva historia.

Caps





Ficha Tenica

TÍTULO ORIGINAL Crayon Shin-chan:
Arashi wo Yobu Utau Ketsu dake Bakudan!
AÑO 2007
DURACIÓN 1h 42min.
PAÍS
DIRECTOR Yuji Mutoh
GUIÓN Tetsuo Yasumi
(Cómic: Yoshito Usui)
MÚSICA Kei Wakakusa,
Minoru Maruo,
Toshiyuki Arakawa
FOTOGRAFÍA Animation
REPARTO Animation
PRODUCTORA ADK /
Futabasha / TV Asahi
GÉNERO Animación.
Comedia. Infantil

Datos de ripeo

General

Complete name : files/O2312SHINCHANMIPERROESLABOMBACASTELLANO.avi
Format : AVI
Format/Info : Audio Video Interleave
File size : 1.45 GiB
Duration : 1h 42mn
Overall bit rate : 2 025 Kbps
Writing application : VirtualDubMod 1.5.10.2 (build 2540/release)
Writing library : VirtualDubMod build 2540/release

Video

ID : 0
Format : MPEG-4 Visual
Format profile : Advanced Simple@L5
Format settings, BVOP : Yes
Format settings, QPel : No
Format settings, GMC : No warppoints
Format settings, Matrix : Default (H.263)
Muxing mode : Packed bitstream
Codec ID : XVID
Codec ID/Hint : XviD
Duration : 1h 42mn
Bit rate : 1 567 Kbps
Width : 720 pixels
Height : 406 pixels
Display aspect ratio : 16:9
Frame rate : 25.000 fps
Color space : YUV
Chroma subsampling : 4:2:0
Bit depth : 8 bits
Scan type : Progressive
Bits/(Pixel*Frame) : 0.214
Stream size : 1.12 GiB (77%)
Writing library : XviD 1.2.1 (UTC 2008-12-04)

Audio

ID : 1
Format : AC-3
Format/Info : Audio Coding 3
Mode extension : CM (complete main)
Codec ID : 2000
Duration : 1h 42mn
Bit rate mode : Constant
Bit rate : 448 Kbps
Channel(s) : 6 channels
Channel positions : Front: L C R, Side: L R, LFE
Sampling rate : 48.0 KHz
Bit depth : 16 bits
Stream size : 329 MiB (22%)
Alignment : Split accross interleaves
Interleave, duration : 40 ms (1.00 video frame)
Interleave, preload duration : 500 ms

Descarga
US & FJ

Servidor #1

Parte 1
http://www.filejungle.com/f/rsxqSs/O....avi.part1.rar
Parte 2
http://www.filejungle.com/f/2aHvJC/O....avi.part2.rar
Parte 3
http://www.filejungle.com/f/2ajr7j/O....avi.part3.rar
Parte 4
http://www.filejungle.com/f/FSx3uh/O....avi.part4.rar
Parte 5
http://www.filejungle.com/f/e5M2Ht/O....avi.part5.rar
Parte 6
http://www.filejungle.com/f/SKk893/O....avi.part6.rar

Servidor #2

Parte 1
http://www.uploadstation.com/file/Vp....avi.part1.rar
Parte 2
http://www.uploadstation.com/file/2w....avi.part2.rar
Parte 3
http://www.uploadstation.com/file/mU....avi.part3.rar
Parte 4
http://www.uploadstation.com/file/dj....avi.part4.rar
Parte 5
http://www.uploadstation.com/file/Z4....avi.part5.rar
Parte 6
http://www.uploadstation.com/file/mU....avi.part6.rar

Nota: Si encuentras un link caído avísame para volverlo a subir




O2312 esta offline  
marca Hoy   #1.5
Torinbo
Usuario Activo

avatar
 
Fecha Ingreso: Jul 2008
Ubicación: En el 2 post
Edad: 18
Mensajes: 1569
Poder de Credibilidad: 550
skypemsn
Respuesta Re: Shin chan mi perro es la bomba [DVDRip Animacion Castellano 2007 .Avi US & FJ]

 
__________________


conectado
Antiguo 22/06/12, 20:51:33   #2
Moderador:
Zona Audiovisual
 
Avatar de jheialcazador
 
Fecha de Ingreso: mar 2012
Ubicación: BOGOTA
Edad: 23
Mensajes: 869
Temas: 235
Has agradecido: 1.575
Has sido agradecido 1.555 veces en 361 mensajes
Poder de Credibilidad: 3779
jheialcazador tiene una reputación que sobrepasa la famajheialcazador tiene una reputación que sobrepasa la famajheialcazador tiene una reputación que sobrepasa la famajheialcazador tiene una reputación que sobrepasa la famajheialcazador tiene una reputación que sobrepasa la famajheialcazador tiene una reputación que sobrepasa la famajheialcazador tiene una reputación que sobrepasa la famajheialcazador tiene una reputación que sobrepasa la famajheialcazador tiene una reputación que sobrepasa la famajheialcazador tiene una reputación que sobrepasa la famajheialcazador tiene una reputación que sobrepasa la fama
Reputación: 188215
Predeterminado Re: Shin chan mi perro es la bomba [DVDRip Animacion Castellano 2007 .Avi US & FJ]

El archivo no está disponible



__________________

DEJA TU GRANITO DE ARENA EN DÁ LAS GRACIAS
Dale Me gusta
Me puedes Seguir
jheialcazador esta offline  
Tema Cerrado

Etiquetas
2007, animacion, avi, bomba, castellano, chan, dvdrip, es, fj, la, mi, perro, shin


Usuarios activos actualmente viendo este tema: 1 (0 miembros y 1 visitantes)
 
Herramientas
Desplegado



El uso horario es GMT -5. La hora actual es: 10:00:39
Powered by vBulletin™ Version 3.8.6
Copyright © 2014 vBulletin Solutions, Inc. All rights reserved.
Traducción por vBHispano
vBulletin Skin by CompletevB
HagalePues.Net 2008 - 2014
SEO by vBSEO ©2011, Crawlability, Inc.


BidVertiser