Ratatouille [DVDRip Animacion Castellano 2007 .Avi US & FJ] - Hagale Pues
Header Hágale Pues
Retroceder   Hagale Pues » Foros de conversación » Basura de Hagalepues
Portal Foro Temas de Hoy Registrarse Buscar




Ratatouille [DVDRip Animacion Castellano 2007 .Avi US & FJ]



Tema Cerrado
Herramientas
Antiguo 18/12/11, 14:11:17   #1
Baneado
 
Fecha de Ingreso: nov 2011
Ubicación: En las peliculas
Mensajes: 740
Temas: 726
Has agradecido: 0
Has sido agradecido 6 veces en 6 mensajes
Poder de Credibilidad: 0
O2312 es como un diamante en brutoO2312 es como un diamante en brutoO2312 es como un diamante en brutoO2312 es como un diamante en bruto
Reputación: 335
Predeterminado Ratatouille [DVDRip Animacion Castellano 2007 .Avi US & FJ]





Información del archivo en el servidor
Partes: 4
Servidores: US & FJ
Tamaño: 810 Mb

Sinopsis
Remy es una simpática rata que sueña con convertirse en un gran chef francés a pesar de la
oposición de su familia y del problema evidente que supone ser una rata en una
profesión que detesta a los roedores. El destino lleva a Remy a las
alcantarillas de París, donde su situación no puede ser mejor, ya
que se encuentra justo debajo de un restaurante que se ha hecho
famoso gracias a Auguste Gusteau, una estrella de la
nouvelle cuisine.

Caps





Ficha Tenica

TÍTULO ORIGINAL Ratatouille
AÑO 2007 Ver trailer externo
DURACIÓN 110 min. Trailers/Vídeos
PAÍS Sección visual
DIRECTOR Brad Bird
GUIÓN Brad Bird (Historia:
Jan Pinkava, Jim Capobianco
MÚSICA Michael Giacchino
FOTOGRAFÍA Animation
REPARTO Animation
PRODUCTORA Pixar
Animation
PREMIOS 2007: Oscar:
Mejor largometraje
de animación.
5 nominaciones
2007: Globo de Oro:
Mejor filme de animación
2007: BAFTA:
Mejor largometraje
de animación
2007: National
Board of Review:
Mejor largometraje
de animación
GÉNERO Animación.
Comedia. Infantil |
Cocina. Roedores.
Cine familiar

Datos de ripeo

General

Complete name : files/O2312RATATOUILLECASTELLANO.avi
Format : AVI
Format/Info : Audio Video Interleave
File size : 810 MiB
Duration : 52mn 59s
Overall bit rate : 2 136 Kbps
Writing application : VirtualDubMod 1.5.10.2 (build 2540/release)
Writing library : VirtualDubMod build 2540/release

Video

ID : 0
Format : MPEG-4 Visual
Format profile : Simple@L1
Format settings, BVOP : No
Format settings, QPel : No
Format settings, GMC : No warppoints
Format settings, Matrix : Default (H.263)
Codec ID : DX50
Codec ID/Hint : DivX 5
Duration : 52mn 59s
Bit rate : 1 998 Kbps
Width : 1 280 pixels
Height : 536 pixels
Display aspect ratio : 2.35:1
Frame rate : 25.000 fps
Color space : YUV
Chroma subsampling : 4:2:0
Bit depth : 8 bits
Scan type : Progressive
Bits/(Pixel*Frame) : 0.117
Stream size : 758 MiB (94%)
Writing library : Lavc52.58.0

Audio

ID : 1
Format : MPEG Audio
Format version : Version 1
Format profile : Layer 3
Mode : Joint stereo
Mode extension : MS Stereo
Codec ID : 55
Codec ID/Hint : MP3
Duration : 52mn 59s
Bit rate mode : Constant
Bit rate : 128 Kbps
Channel(s) : 2 channels
Sampling rate : 44.1 KHz
Stream size : 48.5 MiB (6%)
Alignment : Split accross interleaves
Interleave, duration : 40 ms (1.00 video frame)
Interleave, preload duration : 500 ms
Writing library : LAME3.98

Descarga
US & FJ

Servidor #1

Parte 1
http://www.filejungle.com/f/7YpBdc/O....avi.part1.rar
Parte 2
http://www.filejungle.com/f/9hCz5U/O....avi.part2.rar
Parte 3
http://www.filejungle.com/f/PBCFUS/O....avi.part3.rar
Parte 4
http://www.filejungle.com/f/PRtnSY/O....avi.part4.rar

Servidor #2

Parte 1
http://www.uploadstation.com/file/kW....avi.part1.rar
Parte 2
http://www.uploadstation.com/file/eH....avi.part2.rar
Parte 3
http://www.uploadstation.com/file/JN....avi.part3.rar
Parte 4
http://www.uploadstation.com/file/Qv....avi.part4.rar

Nota: Si encuentras un link caído avísame para volverlo a subir




O2312 esta offline  
Antiguo 22/06/12, 19:51:49   #2
Moderador:
Zona Audiovisual
 
Avatar de jheialcazador
 
Fecha de Ingreso: mar 2012
Ubicación: BOGOTA
Edad: 23
Mensajes: 870
Temas: 241
Has agradecido: 1.575
Has sido agradecido 1.550 veces en 361 mensajes
Poder de Credibilidad: 3774
jheialcazador tiene una reputación que sobrepasa la famajheialcazador tiene una reputación que sobrepasa la famajheialcazador tiene una reputación que sobrepasa la famajheialcazador tiene una reputación que sobrepasa la famajheialcazador tiene una reputación que sobrepasa la famajheialcazador tiene una reputación que sobrepasa la famajheialcazador tiene una reputación que sobrepasa la famajheialcazador tiene una reputación que sobrepasa la famajheialcazador tiene una reputación que sobrepasa la famajheialcazador tiene una reputación que sobrepasa la famajheialcazador tiene una reputación que sobrepasa la fama
Reputación: 188090
Predeterminado Re: Ratatouille [DVDRip Animacion Castellano 2007 .Avi US & FJ]

El archivo no está disponible



__________________

DEJA TU GRANITO DE ARENA EN DÁ LAS GRACIAS
Dale Me gusta
Me puedes Seguir
jheialcazador esta offline  
Tema Cerrado

Etiquetas
2007, animacion, avi, castellano, dvdrip, fj, ratatouille


Usuarios activos actualmente viendo este tema: 1 (0 miembros y 1 visitantes)
 
Herramientas
Desplegado



El uso horario es GMT -5. La hora actual es: 13:14:33
Powered by vBulletin™ Version 3.8.6
Copyright © 2014 vBulletin Solutions, Inc. All rights reserved.
Traducción por vBHispano
vBulletin Skin by CompletevB
HagalePues.Net 2008 - 2014
SEO by vBSEO ©2011, Crawlability, Inc.