Primer escuadron [DVDRip Animacion Castellano 2009 .Avi US & FJ] - Hagale Pues
Header Hágale Pues
Retroceder   Hagale Pues » Foros de conversación » Basura de Hagalepues
Portal Foro Temas de Hoy Registrarse Buscar




Primer escuadron [DVDRip Animacion Castellano 2009 .Avi US & FJ]



Tema Cerrado
Herramientas
Antiguo 18/12/11, 14:03:26   #1
Baneado
 
Fecha de Ingreso: nov 2011
Ubicación: En las peliculas
Mensajes: 740
Temas: 726
Has agradecido: 0
Has sido agradecido 6 veces en 6 mensajes
Poder de Credibilidad: 0
O2312 es como un diamante en brutoO2312 es como un diamante en brutoO2312 es como un diamante en brutoO2312 es como un diamante en bruto
Reputación: 335
Predeterminado Primer escuadron [DVDRip Animacion Castellano 2009 .Avi US & FJ]





Información del archivo en el servidor
Partes:
Servidores: US & FJ
Tamaño: 914 Mb

Sinopsis
En 1942 el combate que mantiene Alemania con Rusia parece no tener fin y ambos países
comenzarán a desarrollar unidades especializadas en la magia y el ocultismo.
Nadya, una joven medium, se convertirá en la mejor arma del
ejército ruso para solventar a su favor ‘el momento de
la verdad’, el segundo decisivo en que una
batalla se gana o se pierde

Caps





Ficha Tenica

Titulo: Primer escuadrón
Género: Animación
Duración: 57 Minutos
Año: 2009
Dirección: Yoshiharu Ashino,
Aljosha Klimov, Misha Sprits
Guión: Aljosha Klimov,
Misha Sprits

Datos de ripeo

General

Complete name : files/O2312PRIMERESCUADRONCASTELLANO.avi
Format : AVI
Format/Info : Audio Video Interleave
File size : 914 MiB
Duration : 57mn 23s
Overall bit rate : 2 226 Kbps
Writing application : Magic0515

Video

ID : 0
Format : MPEG-4 Visual
Format profile : Advanced Simple@L4
Format settings, BVOP : No
Format settings, QPel : No
Format settings, GMC : No warppoints
Format settings, Matrix : Default (H.263)
Codec ID : XVID
Codec ID/Hint : XviD
Duration : 57mn 23s
Bit rate : 1 767 Kbps
Width : 720 pixels
Height : 304 pixels
Display aspect ratio : 2.35:1
Frame rate : 25.000 fps
Color space : YUV
Chroma subsampling : 4:2:0
Bit depth : 8 bits
Scan type : Progressive
Bits/(Pixel*Frame) : 0.323
Stream size : 725 MiB (79%)
Writing library : Magic0432

Audio

ID : 1
Format : AC-3
Format/Info : Audio Coding 3
Mode extension : CM (complete main)
Codec ID : 2000
Duration : 57mn 23s
Bit rate mode : Constant
Bit rate : 448 Kbps
Channel(s) : 6 channels
Channel positions : Front: L C R, Side: L R, LFE
Sampling rate : 48.0 KHz
Bit depth : 16 bits
Stream size : 184 MiB (20%)
Alignment : Aligned on interleaves
Interleave, duration : 32 ms (0.80 video frame)

Descarga
US & FJ

Servidor #1

Parte 1
http://www.filejungle.com/f/PzMz2P/O....avi.part1.rar
Parte 2
http://www.filejungle.com/f/zSP5Nq/O....avi.part2.rar
Parte 3
http://www.filejungle.com/f/5jRN82/O....avi.part3.rar
Parte 4
http://www.filejungle.com/f/JyNmCD/O....avi.part4.rar

Servidor #2

Parte 1
http://www.uploadstation.com/file/Pb....avi.part1.rar
Parte 2
http://www.uploadstation.com/file/PN....avi.part2.rar
Parte 3
http://www.uploadstation.com/file/YD....avi.part3.rar
Parte 4
http://www.uploadstation.com/file/RQ....avi.part4.rar
Ver Online
http://videozer.com/video/qXvvItIv

Nota: Si encuentras un link caído avísame para volverlo a subir




O2312 esta offline  
Antiguo 22/06/12, 19:53:50   #2
Moderador:
Zona Audiovisual
 
Avatar de jheialcazador
 
Fecha de Ingreso: mar 2012
Ubicación: BOGOTA
Edad: 23
Mensajes: 870
Temas: 241
Has agradecido: 1.575
Has sido agradecido 1.551 veces en 361 mensajes
Poder de Credibilidad: 3775
jheialcazador tiene una reputación que sobrepasa la famajheialcazador tiene una reputación que sobrepasa la famajheialcazador tiene una reputación que sobrepasa la famajheialcazador tiene una reputación que sobrepasa la famajheialcazador tiene una reputación que sobrepasa la famajheialcazador tiene una reputación que sobrepasa la famajheialcazador tiene una reputación que sobrepasa la famajheialcazador tiene una reputación que sobrepasa la famajheialcazador tiene una reputación que sobrepasa la famajheialcazador tiene una reputación que sobrepasa la famajheialcazador tiene una reputación que sobrepasa la fama
Reputación: 188115
Predeterminado Re: Primer escuadron [DVDRip Animacion Castellano 2009 .Avi US & FJ]

El archivo no está disponible



__________________

DEJA TU GRANITO DE ARENA EN DÁ LAS GRACIAS
Dale Me gusta
Me puedes Seguir
jheialcazador esta offline  
Tema Cerrado

Etiquetas
2009, animacion, avi, castellano, dvdrip, escuadrón, fj, primer


Usuarios activos actualmente viendo este tema: 1 (0 miembros y 1 visitantes)
 
Herramientas
Desplegado



El uso horario es GMT -5. La hora actual es: 03:48:06
Powered by vBulletin™ Version 3.8.6
Copyright © 2014 vBulletin Solutions, Inc. All rights reserved.
Traducción por vBHispano
vBulletin Skin by CompletevB
HagalePues.Net 2008 - 2014
SEO by vBSEO ©2011, Crawlability, Inc.