Pokemon ranger 9 [DVDRip Animacion Castellano 2006 .Avi US & FJ] - Hagale Pues
Header Hágale Pues
Retroceder   Hagale Pues » Foros de conversación » Basura de Hagalepues
Portal Foro Temas de Hoy Registrarse Buscar




Pokemon ranger 9 [DVDRip Animacion Castellano 2006 .Avi US & FJ]



Tema Cerrado
Herramientas
Antiguo 18/12/11, 13:55:10   #1
Baneado
 
Fecha de Ingreso: nov 2011
Ubicación: En las peliculas
Mensajes: 740
Temas: 726
Has agradecido: 0
Has sido agradecido 6 veces en 6 mensajes
Poder de Credibilidad: 0
O2312 es como un diamante en brutoO2312 es como un diamante en brutoO2312 es como un diamante en brutoO2312 es como un diamante en bruto
Reputación: 335
Predeterminado Pokemon ranger 9 [DVDRip Animacion Castellano 2006 .Avi US & FJ]





Información del archivo en el servidor
Partes: 4
Servidores: US & FJ
Tamaño: 792 Mb

Sinopsis
Todo comienza con una leyenda proveniente de la gente del agua. En algún lugar de este
mundo, existe un Templo del Mar construido por la gente del agua. El Templo contiene
un tesoro escondido llamado la Corona del Mar; pero nadie puede asegurar
su existencia ya que tanto el tesoro como el templo nunca han sido
vistos, y se protegen en el mayor de los secretos.

Caps





Ficha Tenica

TÍTULO ORIGINAL:
Gekijô-ban poketto monsutâ:
Adobansu jenerêshon pokemon
renjâ to umi no ôji manafi
(Pokémon Movie 9)
AÑO: 2006
DURACIÓN: 105 min.
PAÍS:
DIRECTOR: Kunihiko Yuyama
GUIÓN: Hideki Sonoda
MÚSICA: Shinji Miyazaki
FOTOGRAFÍA: Animation
REPARTO: Animation
PRODUCTORA: Shogakukan
Production / TAJ Productions
GÉNERO: Animación

Datos de ripeo

General

Complete name : files/O2312POKEMON9CASTELLANO.avi
Format : AVI
Format/Info : Audio Video Interleave
File size : 792 MiB
Duration : 1h 46mn
Overall bit rate : 1 039 Kbps
Writing application : VirtualDubMod 1.5.10.2 (build 2540/release)
Writing library : VirtualDubMod build 2540/release

Video

ID : 0
Format : MPEG-4 Visual
Format profile : Advanced Simple@L5
Format settings, BVOP : Yes
Format settings, QPel : No
Format settings, GMC : No warppoints
Format settings, Matrix : Default (H.263)
Muxing mode : Packed bitstream
Codec ID : XVID
Codec ID/Hint : XviD
Duration : 1h 46mn
Bit rate : 903 Kbps
Width : 852 pixels
Height : 464 pixels
Display aspect ratio : 16:9
Frame rate : 23.976 fps
Color space : YUV
Chroma subsampling : 4:2:0
Bit depth : 8 bits
Scan type : Progressive
Bits/(Pixel*Frame) : 0.095
Stream size : 689 MiB (87%)
Writing library : XviD 1.1.2 (UTC 2006-11-01)

Audio

ID : 1
Format : MPEG Audio
Format version : Version 1
Format profile : Layer 3
Mode : Joint stereo
Mode extension : MS Stereo
Codec ID : 55
Codec ID/Hint : MP3
Duration : 1h 45mn
Bit rate mode : Constant
Bit rate : 128 Kbps
Channel(s) : 2 channels
Sampling rate : 44.1 KHz
Stream size : 96.3 MiB (12%)
Alignment : Split accross interleaves
Interleave, duration : 42 ms (1.01 video frame)
Interleave, preload duration : 501 ms

Descarga
US & FJ

Servidor #1

Parte 1
http://www.filejungle.com/f/GgcUcn/O....avi.part1.rar
Parte 2
http://www.filejungle.com/f/T8CRc4/O....avi.part2.rar
Parte 3
http://www.filejungle.com/f/rr7TYF/O....avi.part3.rar
Parte 4
http://www.filejungle.com/f/HrBbrX/O....avi.part4.rar

Servidor #2

Parte 1
http://www.uploadstation.com/file/mh....avi.part1.rar
Parte 2
http://www.uploadstation.com/file/WR....avi.part2.rar
Parte 3
http://www.uploadstation.com/file/wA....avi.part3.rar
Parte 4
http://www.uploadstation.com/file/Sc....avi.part4.rar
Ver Online
http://videozer.com/video/WZ6MiguH

Nota: Si encuentras un link caído avísame para volverlo a subir




O2312 esta offline  
Antiguo 22/06/12, 19:54:00   #2
Moderador:
Zona Audiovisual
 
Avatar de jheialcazador
 
Fecha de Ingreso: mar 2012
Ubicación: BOGOTA
Edad: 23
Mensajes: 871
Temas: 242
Has agradecido: 1.575
Has sido agradecido 1.552 veces en 361 mensajes
Poder de Credibilidad: 3776
jheialcazador tiene una reputación que sobrepasa la famajheialcazador tiene una reputación que sobrepasa la famajheialcazador tiene una reputación que sobrepasa la famajheialcazador tiene una reputación que sobrepasa la famajheialcazador tiene una reputación que sobrepasa la famajheialcazador tiene una reputación que sobrepasa la famajheialcazador tiene una reputación que sobrepasa la famajheialcazador tiene una reputación que sobrepasa la famajheialcazador tiene una reputación que sobrepasa la famajheialcazador tiene una reputación que sobrepasa la famajheialcazador tiene una reputación que sobrepasa la fama
Reputación: 188140
Predeterminado Re: Pokemon ranger 9 [DVDRip Animacion Castellano 2006 .Avi US & FJ]

El archivo no está disponible



__________________

DEJA TU GRANITO DE ARENA EN DÁ LAS GRACIAS
Dale Me gusta
Me puedes Seguir
jheialcazador esta offline  
Tema Cerrado

Etiquetas
2006, 9, animacion, avi, castellano, dvdrip, fj, pokémon, ranger


Usuarios activos actualmente viendo este tema: 1 (0 miembros y 1 visitantes)
 
Herramientas
Desplegado



El uso horario es GMT -5. La hora actual es: 13:03:19
Powered by vBulletin™ Version 3.8.6
Copyright © 2014 vBulletin Solutions, Inc. All rights reserved.
Traducción por vBHispano
vBulletin Skin by CompletevB
HagalePues.Net 2008 - 2014
SEO by vBSEO ©2011, Crawlability, Inc.