Padre de familia star wars [DVDRip Animacion Castellano 2007 .Avi US & FJ] - Hagale Pues
Header Hágale Pues
Retroceder   Hagale Pues » Foros de conversación » Basura de Hagalepues
Portal Foro Temas de Hoy Registrarse Buscar




Padre de familia star wars [DVDRip Animacion Castellano 2007 .Avi US & FJ]



Tema Cerrado
Herramientas
Antiguo 18/12/11, 13:42:13   #1
Baneado
 
Fecha de Ingreso: nov 2011
Ubicación: En las peliculas
Mensajes: 740
Temas: 726
Has agradecido: 0
Has sido agradecido 6 veces en 6 mensajes
Poder de Credibilidad: 0
O2312 es como un diamante en brutoO2312 es como un diamante en brutoO2312 es como un diamante en brutoO2312 es como un diamante en bruto
Reputación: 335
Predeterminado Padre de familia star wars [DVDRip Animacion Castellano 2007 .Avi US & FJ]





Información del archivo en el servidor
Partes: 3
Servidores: US & FJ
Tamaño: 501 Mb

Sinopsis
Peter es Han Solo, Lois es Leia, Chris es Luke Skywalker y Brian aparece como Chewbacca...
Y Stewie planea dominar el mundo en su papel de diminuto Darth Vader.
Los Griffin dan una vuelta de tuerca a la más famosa saga de
ciencia ficción de todos los tiempos en esta parodia
del universo Star Wars.

Caps





Ficha Tenica

TÍTULO ORIGINAL Family Guy:
Blue Harvest (AKA Family Guy Star Wars) AÑO 2007
DURACIÓN 48 min.
PAÍS
DIRECTOR Dominic Polcino
GUIÓN Seth MacFarlane, Alec Sulkin
MÚSICA Ron Grainer
FOTOGRAFÍA Animation
REPARTO Animation
PRODUCTORA 20th Century Fox Television
GÉNERO Anime Comedia. Parodia. Mediometraje

Datos de ripeo

General

Complete name : files/O2312PADREDEFAMILIASTARWARSCASTELLANO.avi
Format : AVI
Format/Info : Audio Video Interleave
File size : 501 MiB
Duration : 45mn 37s
Overall bit rate : 1 536 Kbps
Writing application : VirtualDubMod 1.5.10.1 (build 2366/release)
Writing library : VirtualDubMod build 2366/release

Video

ID : 0
Format : MPEG-4 Visual
Format profile : Advanced Simple@L5
Format settings, BVOP : Yes
Format settings, QPel : No
Format settings, GMC : No warppoints
Format settings, Matrix : Default (H.263)
Muxing mode : Packed bitstream
Codec ID : XVID
Codec ID/Hint : XviD
Duration : 45mn 37s
Bit rate : 1 142 Kbps
Width : 576 pixels
Height : 416 pixels
Display aspect ratio : 1.385
Frame rate : 25.000 fps
Color space : YUV
Chroma subsampling : 4:2:0
Bit depth : 8 bits
Scan type : Progressive
Bits/(Pixel*Frame) : 0.191
Stream size : 373 MiB (74%)
Writing library : XviD 1.1.2 (UTC 2006-11-01)

Audio

ID : 1
Format : AC-3
Format/Info : Audio Coding 3
Mode extension : CM (complete main)
Codec ID : 2000
Duration : 45mn 37s
Bit rate mode : Constant
Bit rate : 384 Kbps
Channel(s) : 6 channels
Channel positions : Front: L C R, Side: L R, LFE
Sampling rate : 48.0 KHz
Bit depth : 16 bits
Stream size : 125 MiB (25%)
Alignment : Split accross interleaves
Interleave, duration : 40 ms (1.00 video frame)
Interleave, preload duration : 500 ms

Descarga
US & FJ

Servidor #1

Parte 1
http://www.filejungle.com/f/Perye9/O....avi.part1.rar
Parte 2
http://www.filejungle.com/f/ZNeqkk/O....avi.part2.rar
Parte 3
http://www.filejungle.com/f/VPKuRy/O....avi.part3.rar

Servidor #2

Parte 1
http://www.uploadstation.com/file/tj....avi.part1.rar
Parte 2
http://www.uploadstation.com/file/Cx....avi.part2.rar
Parte 3
http://www.uploadstation.com/file/gR....avi.part3.rar
Ver Online
http://videozer.com/video/lvZ2HXYh

Nota: Si encuentras un link caído avísame para volverlo a subir




O2312 esta offline  
Antiguo 22/06/12, 19:54:06   #2
Moderador:
Zona Audiovisual
 
Avatar de jheialcazador
 
Fecha de Ingreso: mar 2012
Ubicación: BOGOTA
Edad: 23
Mensajes: 871
Temas: 242
Has agradecido: 1.575
Has sido agradecido 1.552 veces en 361 mensajes
Poder de Credibilidad: 3776
jheialcazador tiene una reputación que sobrepasa la famajheialcazador tiene una reputación que sobrepasa la famajheialcazador tiene una reputación que sobrepasa la famajheialcazador tiene una reputación que sobrepasa la famajheialcazador tiene una reputación que sobrepasa la famajheialcazador tiene una reputación que sobrepasa la famajheialcazador tiene una reputación que sobrepasa la famajheialcazador tiene una reputación que sobrepasa la famajheialcazador tiene una reputación que sobrepasa la famajheialcazador tiene una reputación que sobrepasa la famajheialcazador tiene una reputación que sobrepasa la fama
Reputación: 188140
Predeterminado Re: Padre de familia star wars [DVDRip Animacion Castellano 2007 .Avi US & FJ]

El archivo no está disponible



__________________

DEJA TU GRANITO DE ARENA EN DÁ LAS GRACIAS
Dale Me gusta
Me puedes Seguir
jheialcazador esta offline  
Tema Cerrado

Etiquetas
2007, animacion, avi, castellano, de, dvdrip, familia, fj, padre, star, wars


Usuarios activos actualmente viendo este tema: 1 (0 miembros y 1 visitantes)
 
Herramientas
Desplegado



El uso horario es GMT -5. La hora actual es: 14:16:05
Powered by vBulletin™ Version 3.8.6
Copyright © 2014 vBulletin Solutions, Inc. All rights reserved.
Traducción por vBHispano
vBulletin Skin by CompletevB
HagalePues.Net 2008 - 2014
SEO by vBSEO ©2011, Crawlability, Inc.