La leyenda de los 10 guerreros [DVDRip Animacion Castellano 2006 .Avi US & FJ] - Hagale Pues
Header Hágale Pues
Retroceder   Hagale Pues » Foros de conversación » Basura de Hagalepues
Portal Foro Temas de Hoy Registrarse Buscar




La leyenda de los 10 guerreros [DVDRip Animacion Castellano 2006 .Avi US & FJ]



Tema Cerrado
Herramientas
Antiguo 18/12/11, 13:29:15   #1
Baneado
 
Fecha de Ingreso: nov 2011
Ubicación: En las peliculas
Mensajes: 740
Temas: 726
Has agradecido: 0
Has sido agradecido 6 veces en 6 mensajes
Poder de Credibilidad: 0
O2312 es como un diamante en brutoO2312 es como un diamante en brutoO2312 es como un diamante en brutoO2312 es como un diamante en bruto
Reputación: 335
Predeterminado La leyenda de los 10 guerreros [DVDRip Animacion Castellano 2006 .Avi US & FJ]





Información del archivo en el servidor
Partes:
Servidores: US & FJ
Tamaño: 697 Mb

Sinopsis
El mundo está divido en tres: El mundo de los Humanos, El Mundo de los Demonios y El
Mundo de los Espíritus. Un día el príncipe de los Demonios quiso dominar el mundo
de los humanos.Afortunadamente, los 10 Guerreros
de Tokio fueron capaces de evitarlo.

Caps


[IMG][/IMG]


Ficha Tenica

AÑO: 2006
DURACIÓN: 90 min.
PAÍS: Japón
DIRECTOR: Hikaru Takanashi, Keizo Shimizu, Noboru Ishiguro
GUIÓN: Takashi Shouji, Tetsuya Oishi
GÉNERO: Anime, Acción, Aventura, Fantasia

Datos de ripeo

General

Complete name : files/O2312LALEYENDADELOS10GUERREROSDETOKYOCASTELLANO.av i
Format : MPEG-PS
File size : 697 MiB
Duration : 1h 19mn
Overall bit rate : 1 223 Kbps
Writing library : encoded by TMPGEnc (ver. 2.58.44.152)

Video

ID : 224 (0xE0)
Format : MPEG Video
Format version : Version 1
Format settings, BVOP : Yes
Format settings, Matrix : Default
Duration : 1h 19mn
Bit rate mode : Variable
Bit rate : 1 070 Kbps
Width : 352 pixels
Height : 288 pixels
Display aspect ratio : 4:3
Frame rate : 25.000 fps
Standard : PAL
Color space : YUV
Bit depth : 8 bits
Scan type : Progressive
Bits/(Pixel*Frame) : 0.422
Stream size : 610 MiB (88%)
Writing library : TMPGEnc 2.58.44.152

Audio

ID : 192 (0xC0)
Format : MPEG Audio
Format version : Version 1
Format profile : Layer 2
Duration : 1h 19mn
Bit rate mode : Constant
Bit rate : 128 Kbps
Channel(s) : 2 channels
Sampling rate : 44.1 KHz
Stream size : 73.0 MiB (10%)

Descarga
US & FJ

Servidor #1

Parte 1
http://www.filejungle.com/f/B8zY9V/O....avi.part1.rar
Parte 2
http://www.filejungle.com/f/TDcET4/O....avi.part2.rar
Parte 3
http://www.filejungle.com/f/ubu35K/O....avi.part3.rar

Servidor #2

Parte 1
http://www.uploadstation.com/file/mJ....avi.part1.rar
Parte 2
http://www.uploadstation.com/file/ct....avi.part2.rar
Parte 3
http://www.uploadstation.com/file/t4....avi.part3.rar
Ver Online
http://videozer.com/video/UBx8EajF

Nota: Si encuentras un link caído avísame para volverlo a subir




O2312 esta offline  
Antiguo 22/06/12, 19:54:29   #2
Moderador:
Zona Audiovisual
 
Avatar de jheialcazador
 
Fecha de Ingreso: mar 2012
Ubicación: BOGOTA
Edad: 23
Mensajes: 859
Temas: 230
Has agradecido: 1.568
Has sido agradecido 1.519 veces en 352 mensajes
Poder de Credibilidad: 3758
jheialcazador tiene una reputación que sobrepasa la famajheialcazador tiene una reputación que sobrepasa la famajheialcazador tiene una reputación que sobrepasa la famajheialcazador tiene una reputación que sobrepasa la famajheialcazador tiene una reputación que sobrepasa la famajheialcazador tiene una reputación que sobrepasa la famajheialcazador tiene una reputación que sobrepasa la famajheialcazador tiene una reputación que sobrepasa la famajheialcazador tiene una reputación que sobrepasa la famajheialcazador tiene una reputación que sobrepasa la famajheialcazador tiene una reputación que sobrepasa la fama
Reputación: 187315
Predeterminado Re: La leyenda de los 10 guerreros [DVDRip Animacion Castellano 2006 .Avi US & FJ]

El archivo no está disponible



__________________

DEJA TU GRANITO DE ARENA EN DÁ LAS GRACIAS
Dale Me gusta
Me puedes Seguir
jheialcazador esta offline  
Tema Cerrado

Etiquetas
10, 2006, animacion, avi, castellano, de, dvdrip, fj, guerreros, la, leyenda, los


Usuarios activos actualmente viendo este tema: 1 (0 miembros y 1 visitantes)
 
Herramientas
Desplegado



El uso horario es GMT -5. La hora actual es: 06:27:22
Powered by vBulletin™ Version 3.8.6
Copyright © 2014 vBulletin Solutions, Inc. All rights reserved.
Traducción por vBHispano
vBulletin Skin by CompletevB
HagalePues.Net 2008 - 2014
SEO by vBSEO ©2011, Crawlability, Inc.