La increible pero cierta historia de caperucita roja [DVDRip Animacion Castellano 2005 .Avi US & FJ] - Hagale Pues
Header Hágale Pues
Retroceder   Hagale Pues » Foros de conversación » Basura de Hagalepues
Portal Foro Temas de Hoy Registrarse Buscar




La increible pero cierta historia de caperucita roja [DVDRip Animacion Castellano 2005 .Avi US & FJ]



Tema Cerrado
Herramientas
Antiguo 18/12/11, 13:20:44   #1
Baneado
 
Fecha de Ingreso: nov 2011
Ubicación: En las peliculas
Mensajes: 740
Temas: 726
Has agradecido: 0
Has sido agradecido 6 veces en 6 mensajes
Poder de Credibilidad: 0
O2312 es como un diamante en brutoO2312 es como un diamante en brutoO2312 es como un diamante en brutoO2312 es como un diamante en bruto
Reputación: 335
Predeterminado La increible pero cierta historia de caperucita roja [DVDRip Animacion Castellano 2005 .Avi US & FJ]





Información del archivo en el servidor
Partes: 3
Servidores: US & FJ
Tamaño: 699 Mb

Sinopsis
Todo el mundo conoce el cuento de Caperucita Roja... o eso es lo que se creen. Pero todo
está a punto de cambiar pues nadie ha visto hasta ahora el cuento del modo en que
aquí se narra. Todo queda patas arriba, reinventado como una comedia disparatada
animada por ordenador.

Caps





Ficha Tenica

TÍTULO ORIGINAL Hoodwinked
AÑO 2005 Ver trailer externo
DURACIÓN 80 min. Trailers
PAÍS Sección visual
DIRECTOR Cory Edwards,
Todd Edwards, Tony Leech
GUIÓN Cory Edwards,
Todd Edwards, Tony Leech
(Historia: Cory Edwards
& Todd Edwards)
MÚSICA John Mark Painter
& Cory Edwards
FOTOGRAFÍA Animation
REPARTO Animation
PRODUCTORA
The Weinstein Company

Datos de ripeo

General

Complete name : files/O2312LAINCREIBLEPEROCIERTAHISTORIADECAPERUCITAROJA CASTELLANO.avi
Format : AVI
Format/Info : Audio Video Interleave
File size : 699 MiB
Duration : 1h 17mn
Overall bit rate : 1 261 Kbps
Writing application : transcode-1.0.2

Video

ID : 0
Format : MPEG-4 Visual
Format profile : Advanced Simple@L5
Format settings, BVOP : Yes
Format settings, QPel : No
Format settings, GMC : No warppoints
Format settings, Matrix : Default (H.263)
Muxing mode : Packed bitstream
Codec ID : XVID
Codec ID/Hint : XviD
Duration : 1h 17mn
Bit rate : 1 119 Kbps
Width : 560 pixels
Height : 304 pixels
Display aspect ratio : 16:9
Frame rate : 25.000 fps
Color space : YUV
Chroma subsampling : 4:2:0
Bit depth : 8 bits
Scan type : Progressive
Bits/(Pixel*Frame) : 0.263
Stream size : 621 MiB (89%)
Writing library : XviD 1.1.0 (UTC 2005-11-22)

Audio

ID : 1
Format : MPEG Audio
Format version : Version 1
Format profile : Layer 3
Mode : Joint stereo
Mode extension : MS Stereo
Codec ID : 55
Codec ID/Hint : MP3
Duration : 1h 17mn
Bit rate mode : Variable
Bit rate : 128 Kbps
Channel(s) : 2 channels
Sampling rate : 48.0 KHz
Stream size : 71.3 MiB (10%)
Alignment : Aligned on interleaves
Interleave, duration : 24 ms (0.60 video frame)

Descarga
US & FJ

Servidor #1

Parte 1
http://www.filejungle.com/f/YWGWFQ/O....avi.part1.rar
Parte 2
http://www.filejungle.com/f/9HDvmW/O....avi.part2.rar
Parte 3
http://www.filejungle.com/f/PVh3zx/O....avi.part3.rar

Servidor #2

Parte 1
http://www.uploadstation.com/file/eW....avi.part1.rar
Parte 2
http://www.uploadstation.com/file/2D....avi.part2.rar
Parte 3
http://www.uploadstation.com/file/XD....avi.part3.rar
Ver Online
http://videozer.com/video/gQBlx3

Nota: Si encuentras un link caído avísame para volverlo a subir




O2312 esta offline  
Antiguo 22/06/12, 19:54:37   #2
Moderador:
Zona Audiovisual
 
Avatar de jheialcazador
 
Fecha de Ingreso: mar 2012
Ubicación: BOGOTA
Edad: 23
Mensajes: 859
Temas: 230
Has agradecido: 1.568
Has sido agradecido 1.520 veces en 352 mensajes
Poder de Credibilidad: 3758
jheialcazador tiene una reputación que sobrepasa la famajheialcazador tiene una reputación que sobrepasa la famajheialcazador tiene una reputación que sobrepasa la famajheialcazador tiene una reputación que sobrepasa la famajheialcazador tiene una reputación que sobrepasa la famajheialcazador tiene una reputación que sobrepasa la famajheialcazador tiene una reputación que sobrepasa la famajheialcazador tiene una reputación que sobrepasa la famajheialcazador tiene una reputación que sobrepasa la famajheialcazador tiene una reputación que sobrepasa la famajheialcazador tiene una reputación que sobrepasa la fama
Reputación: 187340
Predeterminado Re: La increible pero cierta historia de caperucita roja [DVDRip Animacion Castellano 2005 .Avi US & FJ]

El archivo no está disponible



__________________

DEJA TU GRANITO DE ARENA EN DÁ LAS GRACIAS
Dale Me gusta
Me puedes Seguir
jheialcazador esta offline  
Tema Cerrado

Etiquetas
2005, animacion, avi, caperucita, castellano, cierta, de, dvdrip, fj, historia, increible, la, pero, roja


Usuarios activos actualmente viendo este tema: 1 (0 miembros y 1 visitantes)
 
Herramientas
Desplegado



El uso horario es GMT -5. La hora actual es: 18:33:10
Powered by vBulletin™ Version 3.8.6
Copyright © 2014 vBulletin Solutions, Inc. All rights reserved.
Traducción por vBHispano
vBulletin Skin by CompletevB
HagalePues.Net 2008 - 2014
SEO by vBSEO ©2011, Crawlability, Inc.