La crisis carnivora [DVDRip Animacion Castellano 2008 .Avi US & FJ] - Hagale Pues
Header Hágale Pues
Retroceder   Hagale Pues » Foros de conversación » Basura de Hagalepues
Portal Foro Temas de Hoy Registrarse Buscar




La crisis carnivora [DVDRip Animacion Castellano 2008 .Avi US & FJ]



Tema Cerrado
Herramientas
Antiguo 18/12/11, 13:12:45   #1
Baneado
 
Fecha de Ingreso: nov 2011
Ubicación: En las peliculas
Mensajes: 740
Temas: 726
Has agradecido: 0
Has sido agradecido 6 veces en 6 mensajes
Poder de Credibilidad: 0
O2312 es como un diamante en brutoO2312 es como un diamante en brutoO2312 es como un diamante en brutoO2312 es como un diamante en bruto
Reputación: 335
Predeterminado La crisis carnivora [DVDRip Animacion Castellano 2008 .Avi US & FJ]





Información del archivo en el servidor
Partes:
Servidores: US & FJ
Tamaño: 697 Mb

Sinopsis
Gracias al Pacto Vegetariano, todos los animales conviven en paz y armonía. Todos menos
uno: la hiena Crevel, que vive con la angustiosa sensación de no volver a comer carne.
Decidido a calmar su apetito, una noche Crevel acude al cementerio dispuesto
a devorar los cadáveres, pero no puede hacerlo: ¡no hay ninguno! El
león Pérsicus y su consigliere, el tigre Altaicus, han organizado
toda una red alimenticia con los difuntos para
mantener sus hábitos carnívoros

Caps





Ficha Tenica

TÍTULO ORIGINAL
La crisis carnívora
AÑO
2008
DURACIÓN
80 min.
PAÍS
DIRECTOR
Pedro Rivero
GUIÓN
Pedro Rivero, Egoitz Moreno
MÚSICA
Daniel Tejerina
FOTOGRAFÍA
Animation
REPARTO(VOCES)
Enrique San Francisco
Jose Coronado,Pablo Carbonell
,Pedro Reyes,Alex Angulo,Mario
Pardo,Carlos Sobera,Joaquin Reyes
PRODUCTORA
Continental Producciones
GÉNERO
Animación. Comedia

Datos de ripeo

General

Complete name : files/O2312LACRISISCARNIBORACASTELLANO.avi
Format : AVI
Format/Info : Audio Video Interleave
File size : 697 MiB
Duration : 1h 18mn
Overall bit rate : 1 245 Kbps
Writing application : VirtualDubMod 1.5.10.2 (build 2540/release)
Writing library : VirtualDubMod build 2540/release

Video

ID : 0
Format : MPEG-4 Visual
Format profile : Advanced Simple@L5
Format settings, BVOP : Yes
Format settings, QPel : No
Format settings, GMC : No warppoints
Format settings, Matrix : Default (H.263)
Muxing mode : Packed bitstream
Codec ID : XVID
Codec ID/Hint : XviD
Duration : 1h 18mn
Bit rate : 1 104 Kbps
Width : 624 pixels
Height : 336 pixels
Display aspect ratio : 1.857
Frame rate : 25.000 fps
Color space : YUV
Chroma subsampling : 4:2:0
Bit depth : 8 bits
Scan type : Progressive
Bits/(Pixel*Frame) : 0.211
Stream size : 619 MiB (89%)
Writing library : XviD 1.1.0 (UTC 2005-11-22)

Audio

ID : 1
Format : MPEG Audio
Format version : Version 1
Format profile : Layer 3
Mode : Joint stereo
Codec ID : 55
Codec ID/Hint : MP3
Duration : 1h 18mn
Bit rate mode : Variable
Bit rate : 128 Kbps
Channel(s) : 2 channels
Sampling rate : 48.0 KHz
Stream size : 71.4 MiB (10%)
Alignment : Aligned on interleaves
Interleave, duration : 24 ms (0.60 video frame)
Interleave, preload duration : 482 ms
Writing library : LAME3.90.
Encoding settings : -m j -V 4 -q 2 -lowpass 17.6 --abr 128

Descarga
US & FJ

Servidor #1

Parte 1
http://www.filejungle.com/f/f3p6wQ/O....avi.part1.rar
Parte 2
http://www.filejungle.com/f/mQ32vQ/O....avi.part2.rar
Parte 3
http://www.filejungle.com/f/rnAr3J/O....avi.part3.rar

Servidor #2

Parte 1
http://www.uploadstation.com/file/Aa....avi.part1.rar
Parte 2
http://www.uploadstation.com/file/5j....avi.part2.rar
Parte 3
http://www.uploadstation.com/file/BW....avi.part3.rar
Ver Online
http://videozer.com/video/LmT6K9IW

Nota: Si encuentras un link caído avísame para volverlo a subir




O2312 esta offline  
Antiguo 22/06/12, 19:54:45   #2
Moderador:
Zona Audiovisual
 
Avatar de jheialcazador
 
Fecha de Ingreso: mar 2012
Ubicación: BOGOTA
Edad: 23
Mensajes: 871
Temas: 235
Has agradecido: 1.575
Has sido agradecido 1.554 veces en 361 mensajes
Poder de Credibilidad: 3777
jheialcazador tiene una reputación que sobrepasa la famajheialcazador tiene una reputación que sobrepasa la famajheialcazador tiene una reputación que sobrepasa la famajheialcazador tiene una reputación que sobrepasa la famajheialcazador tiene una reputación que sobrepasa la famajheialcazador tiene una reputación que sobrepasa la famajheialcazador tiene una reputación que sobrepasa la famajheialcazador tiene una reputación que sobrepasa la famajheialcazador tiene una reputación que sobrepasa la famajheialcazador tiene una reputación que sobrepasa la famajheialcazador tiene una reputación que sobrepasa la fama
Reputación: 188190
Predeterminado Re: La crisis carnivora [DVDRip Animacion Castellano 2008 .Avi US & FJ]

El archivo no está disponible



__________________

DEJA TU GRANITO DE ARENA EN DÁ LAS GRACIAS
Dale Me gusta
Me puedes Seguir
jheialcazador esta offline  
Tema Cerrado

Etiquetas
2008, animacion, avi, carnivora, castellano, crisis, dvdrip, fj, la


Usuarios activos actualmente viendo este tema: 1 (0 miembros y 1 visitantes)
 
Herramientas
Desplegado



El uso horario es GMT -5. La hora actual es: 22:36:36
Powered by vBulletin™ Version 3.8.6
Copyright © 2014 vBulletin Solutions, Inc. All rights reserved.
Traducción por vBHispano
vBulletin Skin by CompletevB
HagalePues.Net 2008 - 2014
SEO by vBSEO ©2011, Crawlability, Inc.