Halo legends [DVDRip Animacion Castellano 2010 .Avi US & FJ] - Hagale Pues
Header Hágale Pues
Retroceder   Hagale Pues » Foros de conversación » Basura de Hagalepues
Portal Foro Temas de Hoy Registrarse Buscar




Halo legends [DVDRip Animacion Castellano 2010 .Avi US & FJ]



Tema Cerrado
Herramientas
Antiguo 18/12/11, 13:04:05   #1
Baneado
 
Fecha de Ingreso: nov 2011
Ubicación: En las peliculas
Mensajes: 740
Temas: 726
Has agradecido: 0
Has sido agradecido 6 veces en 6 mensajes
Poder de Credibilidad: 0
O2312 es como un diamante en brutoO2312 es como un diamante en brutoO2312 es como un diamante en brutoO2312 es como un diamante en bruto
Reputación: 335
Predeterminado Halo legends [DVDRip Animacion Castellano 2010 .Avi US & FJ]





Información del archivo en el servidor
Partes:
Servidores: US & FJ
Tamaño: 972 Mb

Sinopsis
Adaptación al anime de la saga de videojuegos Halo, en un movimiento similar a Animatrix
o Batman Gotham Knight, mediante siete cortos de entre 10-20 minutos de duración
cada uno producidos por algunos de los estudios de animación más importantes
de Japón. Dirigidos por prestigiosos directores como
Shinji Aramaki (Appleseed) y Mamoru
Oshii (Ghost in the Shell).

Caps





Ficha Tenica

TÍTULO ORIGINAL Halo Legends
AÑO 2010
DURACIÓN 110 min. Trailers
PAÍS Sección visual
DIRECTOR Shinji Aramaki
Mamoru Oshii, Daisuke Nishio
Frank O'Connor, Hideki
Futamura, Hiroshi Yamazaki
oji Sawai
GUIÓN Daisuke Nishio, Frank
O'Connor, Hiroshi Yamazaki
Dai Sato, Eiji Umehara
MÚSICA
FOTOGRAFÍA Animation
REPARTO Animation

Datos de ripeo

General

Complete name : files/O2312HALOLEGENDSCASTELLANO.avi
Format : AVI
Format/Info : Audio Video Interleave
File size : 972 MiB
Duration : 1h 59mn
Overall bit rate : 1 139 Kbps

Video

ID : 0
Format : MPEG-4 Visual
Format profile : Simple@L1
Format settings, BVOP : No
Format settings, QPel : No
Format settings, GMC : No warppoints
Format settings, Matrix : Default (H.263)
Codec ID : DIVX
Codec ID/Info : Project Mayo
Codec ID/Hint : DivX 4
Duration : 1h 59mn
Bit rate : 999 Kbps
Width : 640 pixels
Height : 360 pixels
Display aspect ratio : 16:9
Frame rate : 24.000 fps
Color space : YUV
Chroma subsampling : 4:2:0
Bit depth : 8 bits
Scan type : Progressive
Bits/(Pixel*Frame) : 0.181
Stream size : 852 MiB (88%)
Writing library : avc2.0.11.1110

Audio

ID : 1
Format : MPEG Audio
Format version : Version 1
Format profile : Layer 3
Mode : Joint stereo
Mode extension : MS Stereo
Codec ID : 55
Codec ID/Hint : MP3
Duration : 1h 59mn
Bit rate mode : Constant
Bit rate : 128 Kbps
Channel(s) : 2 channels
Sampling rate : 44.1 KHz
Stream size : 109 MiB (11%)
Alignment : Aligned on interleaves
Interleave, duration : 26 ms (0.63 video frame)
Writing library : LAME3.96.1

Descarga
US & FJ

Servidor #1

Parte 1
http://www.filejungle.com/f/UMyUpc/O....avi.part1.rar
Parte 2
http://www.filejungle.com/f/XaZBcr/O....avi.part2.rar
Parte 3
http://www.filejungle.com/f/3YC89M/O....avi.part3.rar
Parte 4
http://www.filejungle.com/f/3zA5ap/O....avi.part4.rar

Servidor #2

Parte 1
http://www.uploadstation.com/file/rh....avi.part1.rar
Parte 2
http://www.uploadstation.com/file/XG....avi.part2.rar
Parte 3
http://www.uploadstation.com/file/Hx....avi.part3.rar
Parte 4
http://www.uploadstation.com/file/Tb....avi.part4.rar
Ver Online
http://videozer.com/video/vmCFbWgh

Nota: Si encuentras un link caído avísame para volverlo a subir




O2312 esta offline  
Antiguo 22/06/12, 19:54:56   #2
Moderador:
Zona Audiovisual
 
Avatar de jheialcazador
 
Fecha de Ingreso: mar 2012
Ubicación: BOGOTA
Edad: 23
Mensajes: 871
Temas: 242
Has agradecido: 1.575
Has sido agradecido 1.554 veces en 361 mensajes
Poder de Credibilidad: 3777
jheialcazador tiene una reputación que sobrepasa la famajheialcazador tiene una reputación que sobrepasa la famajheialcazador tiene una reputación que sobrepasa la famajheialcazador tiene una reputación que sobrepasa la famajheialcazador tiene una reputación que sobrepasa la famajheialcazador tiene una reputación que sobrepasa la famajheialcazador tiene una reputación que sobrepasa la famajheialcazador tiene una reputación que sobrepasa la famajheialcazador tiene una reputación que sobrepasa la famajheialcazador tiene una reputación que sobrepasa la famajheialcazador tiene una reputación que sobrepasa la fama
Reputación: 188190
Predeterminado Re: Halo legends [DVDRip Animacion Castellano 2010 .Avi US & FJ]

El archivo no está disponible



__________________

DEJA TU GRANITO DE ARENA EN DÁ LAS GRACIAS
Dale Me gusta
Me puedes Seguir
jheialcazador esta offline  
Tema Cerrado

Etiquetas
2010, animacion, avi, castellano, dvdrip, fj, halo, legends


Usuarios activos actualmente viendo este tema: 1 (0 miembros y 1 visitantes)
 
Herramientas
Desplegado



El uso horario es GMT -5. La hora actual es: 07:22:37
Powered by vBulletin™ Version 3.8.6
Copyright © 2014 vBulletin Solutions, Inc. All rights reserved.
Traducción por vBHispano
vBulletin Skin by CompletevB
HagalePues.Net 2008 - 2014
SEO by vBSEO ©2011, Crawlability, Inc.