Gnomeo y julieta [DVDRip Animacion Castellano 2011 .Avi US & FJ] - Hagale Pues
Header Hágale Pues
Retroceder   Hagale Pues » Foros de conversación » Basura de Hagalepues
Portal Foro Temas de Hoy Registrarse Buscar




Gnomeo y julieta [DVDRip Animacion Castellano 2011 .Avi US & FJ]



Tema Cerrado
Herramientas
Antiguo 18/12/11, 13:56:47   #1
Baneado
 
Fecha de Ingreso: nov 2011
Ubicación: En las peliculas
Mensajes: 740
Temas: 726
Has agradecido: 0
Has sido agradecido 6 veces en 6 mensajes
Poder de Credibilidad: 0
O2312 es como un diamante en brutoO2312 es como un diamante en brutoO2312 es como un diamante en brutoO2312 es como un diamante en bruto
Reputación: 335
Predeterminado Gnomeo y julieta [DVDRip Animacion Castellano 2011 .Avi US & FJ]





Información del archivo en el servidor
Partes: 5
Servidores: US & FJ
Tamaño: 1.21 Gb

Sinopsis
La historia de amor más grande jamás contada, protagonizada por... ¿enanos de jardín? En
“Gnomeo & Juliet”, la maravillosa obra de Shakespeare experimenta una transformación
disparatada y tremendamente divertida. Dirigida por Kelly Asbury (“Shrek 2”) y con
canciones clásicas y originales de Elton John, Gnomeo y Juliet, al igual
que sus cuasi homónimos, tienen que superar un sinfín de obstáculos
al verse envueltos disputa entre vecinos.

Caps





Ficha Tenica

TITULO
Gnomeo y Julieta
TITULO ORIGINAL
Gnomeo & Juliet
PAIS
USA
ESTRENO EN USA
11/02/2011
ESTRENO EN ESPAÑA
18/03/2011
PRODUCTORA
Touchstone Pictures
DIRECTOR
Kelly Asbury
GUION
Rob Sprackling
John R. Smith
Kevin Cecil
Andy Riley
Mark Burton

Datos de ripeo

General

Complete name : files/O2312GNOMEOYJULIETACASTELLANO.avi
Format : AVI
Format/Info : Audio Video Interleave
File size : 1.21 GiB
Duration : 1h 23mn
Overall bit rate : 2 070 Kbps
Writing application : VirtualDubMod 1.5.10.2 (build 2540/release)
Writing library : VirtualDubMod build 2540/release

Video

ID : 0
Format : MPEG-4 Visual
Format profile : Advanced Simple@L5
Format settings, BVOP : Yes
Format settings, QPel : No
Format settings, GMC : No warppoints
Format settings, Matrix : Custom
Codec ID : XVID
Codec ID/Hint : XviD
Duration : 1h 23mn
Bit rate : 1 806 Kbps
Width : 720 pixels
Height : 384 pixels
Display aspect ratio : 1.875
Frame rate : 23.976 fps
Color space : YUV
Chroma subsampling : 4:2:0
Bit depth : 8 bits
Scan type : Progressive
Bits/(Pixel*Frame) : 0.272
Stream size : 1.06 GiB (87%)
Writing library : XviD 58

Audio

ID : 1
Format : MPEG Audio
Format version : Version 1
Format profile : Layer 3
Codec ID : 55
Codec ID/Hint : MP3
Duration : 1h 23mn
Bit rate mode : Constant
Bit rate : 256 Kbps
Channel(s) : 2 channels
Sampling rate : 44.1 KHz
Video delay : 19ms
Stream size : 153 MiB (12%)
Alignment : Split accross interleaves
Interleave, duration : 42 ms (1.00 video frame)
Interleave, preload duration : 500 ms

Descarga
US & FJ

Servidor #1

Parte 1
http://www.filejungle.com/f/n32d9E/O....avi.part1.rar
Parte 2
http://www.filejungle.com/f/XtT8TZ/O....avi.part2.rar
Parte 3
http://www.filejungle.com/f/A595HT/O....avi.part3.rar
Parte 4
http://www.filejungle.com/f/9244Qd/O....avi.part4.rar
Parte 5
http://www.filejungle.com/f/7NXQhK/O....avi.part5.rar

Servidor #2

Parte 1
http://www.uploadstation.com/file/Qa....avi.part1.rar
Parte 2
http://www.uploadstation.com/file/Uh....avi.part2.rar
Parte 3
http://www.uploadstation.com/file/Rz....avi.part3.rar
Parte 4
http://www.uploadstation.com/file/Qk....avi.part4.rar
Parte 5
http://www.uploadstation.com/file/fs....avi.part5.rar
Ver Online
http://videozer.com/video/uJSxPB

Nota: Si encuentras un link caído avísame para volverlo a subir




O2312 esta offline  
marca Hoy   #1.5
Torinbo
Usuario Activo

avatar
 
Fecha Ingreso: Jul 2008
Ubicación: En el 2 post
Edad: 18
Mensajes: 1569
Poder de Credibilidad: 550
skypemsn
Respuesta Re: Gnomeo y julieta [DVDRip Animacion Castellano 2011 .Avi US & FJ]

 
__________________


conectado
Antiguo 22/06/12, 20:55:04   #2
Moderador:
Zona Audiovisual
 
Avatar de jheialcazador
 
Fecha de Ingreso: mar 2012
Ubicación: BOGOTA
Edad: 23
Mensajes: 869
Temas: 235
Has agradecido: 1.575
Has sido agradecido 1.555 veces en 361 mensajes
Poder de Credibilidad: 3779
jheialcazador tiene una reputación que sobrepasa la famajheialcazador tiene una reputación que sobrepasa la famajheialcazador tiene una reputación que sobrepasa la famajheialcazador tiene una reputación que sobrepasa la famajheialcazador tiene una reputación que sobrepasa la famajheialcazador tiene una reputación que sobrepasa la famajheialcazador tiene una reputación que sobrepasa la famajheialcazador tiene una reputación que sobrepasa la famajheialcazador tiene una reputación que sobrepasa la famajheialcazador tiene una reputación que sobrepasa la famajheialcazador tiene una reputación que sobrepasa la fama
Reputación: 188215
Predeterminado Re: Gnomeo y julieta [DVDRip Animacion Castellano 2011 .Avi US & FJ]

El archivo no está disponible



__________________

DEJA TU GRANITO DE ARENA EN DÁ LAS GRACIAS
Dale Me gusta
Me puedes Seguir
jheialcazador esta offline  
Tema Cerrado

Etiquetas
2011, animacion, avi, castellano, dvdrip, fj, gnomeo, julieta


Usuarios activos actualmente viendo este tema: 1 (0 miembros y 1 visitantes)
 
Herramientas
Desplegado



El uso horario es GMT -5. La hora actual es: 15:02:22
Powered by vBulletin™ Version 3.8.6
Copyright © 2014 vBulletin Solutions, Inc. All rights reserved.
Traducción por vBHispano
vBulletin Skin by CompletevB
HagalePues.Net 2008 - 2014
SEO by vBSEO ©2011, Crawlability, Inc.


BidVertiser