Final fantasy 7 [DVDRip Animacion Castellano 2005 .Avi US & FJ] - Hagale Pues
Header Hágale Pues
Retroceder   Hagale Pues » Foros de conversación » Basura de Hagalepues
Portal Foro Temas de Hoy Registrarse Buscar




Final fantasy 7 [DVDRip Animacion Castellano 2005 .Avi US & FJ]



Tema Cerrado
Herramientas
Antiguo 18/12/11, 12:49:02   #1
Baneado
 
Fecha de Ingreso: nov 2011
Ubicación: En las peliculas
Mensajes: 740
Temas: 726
Has agradecido: 0
Has sido agradecido 6 veces en 6 mensajes
Poder de Credibilidad: 0
O2312 es como un diamante en brutoO2312 es como un diamante en brutoO2312 es como un diamante en brutoO2312 es como un diamante en bruto
Reputación: 335
Predeterminado Final fantasy 7 [DVDRip Animacion Castellano 2005 .Avi US & FJ]





Información del archivo en el servidor
Partes: 3
Servidores: US & FJ
Tamaño: 697 Mb

Sinopsis
Esta película generada íntegramente por ordenador, es la continuación del videojuego de Square Enix;
Final Fantasy VII y forma parte de una estrategía de la propia compañía para
completar la historia de la saga.
El argumento nos sitúa dos
años después de Final
Fantasy VII. Cloud
Strife, el
protagonista .

Caps





Ficha Tenica


TÍTULO ORIGINAL
Final Fantasy VII:
Advent Children
(FFVII Advent
Children Complete)
AÑO 2005
DURACIÓN 100 min.
PAÍS Japon

Datos de ripeo

General

Complete name : files/O2312FINALFANTASYCASTELLANO.avi
Format : AVI
Format/Info : Audio Video Interleave
File size : 697 MiB
Duration : 1h 30mn
Overall bit rate : 1 076 Kbps
Writing application : VirtualDubMod 1.5.10.2 (build 2540/release)
Writing library : VirtualDubMod build 2540/release

Video

ID : 0
Format : MPEG-4 Visual
Format profile : Advanced Simple@L5
Format settings, BVOP : Yes
Format settings, QPel : No
Format settings, GMC : No warppoints
Format settings, Matrix : Default (H.263)
Muxing mode : Packed bitstream
Codec ID : XVID
Codec ID/Hint : XviD
Duration : 1h 30mn
Bit rate : 938 Kbps
Width : 624 pixels
Height : 352 pixels
Display aspect ratio : 16:9
Frame rate : 25.000 fps
Color space : YUV
Chroma subsampling : 4:2:0
Bit depth : 8 bits
Scan type : Progressive
Bits/(Pixel*Frame) : 0.171
Stream size : 607 MiB (87%)
Writing library : XviD 1.1.2 (UTC 2006-11-01)

Audio

ID : 1
Format : MPEG Audio
Format version : Version 1
Format profile : Layer 3
Mode : Joint stereo
Mode extension : MS Stereo
Codec ID : 55
Codec ID/Hint : MP3
Duration : 1h 30mn
Bit rate mode : Variable
Bit rate : 128 Kbps
Channel(s) : 2 channels
Sampling rate : 48.0 KHz
Stream size : 80.9 MiB (12%)
Alignment : Aligned on interleaves
Interleave, duration : 24 ms (0.60 video frame)
Interleave, preload duration : 147 ms
Writing library : LAME3.90.
Encoding settings : -m j -V 4 -q 2 -lowpass 17.6 --abr 128

Descarga
US & FJ

Servidor #1

Parte 1
http://www.filejungle.com/f/EXjtPx/O....avi.part1.rar
Parte 2
http://www.filejungle.com/f/hxCQHG/O....avi.part2.rar
Parte 3
http://www.filejungle.com/f/7H8WvN/O....avi.part3.rar

Servidor #2

Parte 1
http://www.uploadstation.com/file/wA....avi.part1.rar
Parte 2
http://www.uploadstation.com/file/Es....avi.part2.rar
Parte 3
http://www.uploadstation.com/file/DJ....avi.part3.rar
Ver Online
http://videozer.com/video/zqSsEtqV

Nota: Si encuentras un link caído avísame para volverlo a subir




O2312 esta offline  
Antiguo 22/06/12, 19:55:18   #2
Moderador:
Zona Audiovisual
 
Avatar de jheialcazador
 
Fecha de Ingreso: mar 2012
Ubicación: BOGOTA
Edad: 23
Mensajes: 870
Temas: 241
Has agradecido: 1.575
Has sido agradecido 1.551 veces en 361 mensajes
Poder de Credibilidad: 3775
jheialcazador tiene una reputación que sobrepasa la famajheialcazador tiene una reputación que sobrepasa la famajheialcazador tiene una reputación que sobrepasa la famajheialcazador tiene una reputación que sobrepasa la famajheialcazador tiene una reputación que sobrepasa la famajheialcazador tiene una reputación que sobrepasa la famajheialcazador tiene una reputación que sobrepasa la famajheialcazador tiene una reputación que sobrepasa la famajheialcazador tiene una reputación que sobrepasa la famajheialcazador tiene una reputación que sobrepasa la famajheialcazador tiene una reputación que sobrepasa la fama
Reputación: 188115
Predeterminado Re: Final fantasy 7 [DVDRip Animacion Castellano 2005 .Avi US & FJ]

El archivo no está disponible



__________________

DEJA TU GRANITO DE ARENA EN DÁ LAS GRACIAS
Dale Me gusta
Me puedes Seguir
jheialcazador esta offline  
Tema Cerrado

Etiquetas
2005, 7, animacion, avi, castellano, dvdrip, fantasy, final, fj


Usuarios activos actualmente viendo este tema: 1 (0 miembros y 1 visitantes)
 
Herramientas
Desplegado



El uso horario es GMT -5. La hora actual es: 13:12:08
Powered by vBulletin™ Version 3.8.6
Copyright © 2014 vBulletin Solutions, Inc. All rights reserved.
Traducción por vBHispano
vBulletin Skin by CompletevB
HagalePues.Net 2008 - 2014
SEO by vBSEO ©2011, Crawlability, Inc.