El valiente despereaux [DVDRip Animacion Castellano 2008 .Avi US & FJ] - Hagale Pues
Header Hágale Pues
Retroceder   Hagale Pues » Foros de conversación » Basura de Hagalepues
Portal Foro Temas de Hoy Registrarse Buscar




El valiente despereaux [DVDRip Animacion Castellano 2008 .Avi US & FJ]



Tema Cerrado
Herramientas
Antiguo 18/12/11, 12:41:14   #1
Baneado
 
Fecha de Ingreso: nov 2011
Ubicación: En las peliculas
Mensajes: 740
Temas: 726
Has agradecido: 0
Has sido agradecido 6 veces en 6 mensajes
Poder de Credibilidad: 0
O2312 es como un diamante en brutoO2312 es como un diamante en brutoO2312 es como un diamante en brutoO2312 es como un diamante en bruto
Reputación: 335
Predeterminado El valiente despereaux [DVDRip Animacion Castellano 2008 .Avi US & FJ]





Información del archivo en el servidor
Partes: 4
Servidores: US & FJ
Tamaño: 968 Mb

Sinopsis
Es la historia de tres heroes que no se parecen: un ratón que no encaja, que prefiere
leer libros que comérselos y que está terriblemente enamorado de una princesa, una
infeliz rata quien planea dejar la oscuridad del calabozo, y una
sirvienta con orejas de coliflor, cuyos destinos están
entrelazados con el de la princesa del castillo

Caps





Ficha Tenica

TÍTULO ORIGINAL
The Tale of Despereaux
AÑO 2008
DURACIÓN
93 min.
PAÍS Sección visual
DIRECTOR Sam Fell,
Robert Stevenhagen
GUIÓN Will McRobb,
Chris Viscardi,
Gary Ross (Libro:
Kate DiCamillo)
MÚSICA William Ross
FOTOGRAFÍA
Brad Blackbourn
REPARTO Animation

Datos de ripeo

General

Complete name : files/O2312ELVALIENTEDESPEREAUXCASTELLANO.avi
Format : AVI
Format/Info : Audio Video Interleave
File size : 968 MiB
Duration : 1h 33mn
Overall bit rate : 1 447 Kbps
Writing application : VirtualDubMod 1.5.10.2 (build 2540/release)
Writing library : VirtualDubMod build 2540/release

Video

ID : 0
Format : MPEG-4 Visual
Format profile : Advanced Simple@L5
Format settings, BVOP : Yes
Format settings, QPel : No
Format settings, GMC : No warppoints
Format settings, Matrix : Default (MPEG)
Codec ID : XVID
Codec ID/Hint : XviD
Duration : 1h 33mn
Bit rate : 990 Kbps
Width : 720 pixels
Height : 304 pixels
Display aspect ratio : 2.35:1
Frame rate : 23.976 fps
Color space : YUV
Chroma subsampling : 4:2:0
Bit depth : 8 bits
Scan type : Progressive
Bits/(Pixel*Frame) : 0.189
Stream size : 662 MiB (68%)
Writing library : XviD 1.2.1 (UTC 2008-12-04)

Audio

ID : 1
Format : AC-3
Format/Info : Audio Coding 3
Mode extension : CM (complete main)
Codec ID : 2000
Duration : 1h 33mn
Bit rate mode : Constant
Bit rate : 448 Kbps
Channel(s) : 6 channels
Channel positions : Front: L C R, Side: L R, LFE
Sampling rate : 48.0 KHz
Bit depth : 16 bits
Stream size : 300 MiB (31%)
Alignment : Split accross interleaves
Interleave, duration : 42 ms (1.00 video frame)
Interleave, preload duration : 500 ms

Descarga
US & FJ

Servidor #1

Parte 1
http://www.filejungle.com/f/6SYhNp/O....avi.part1.rar
Parte 2
http://www.filejungle.com/f/UCFudc/O....avi.part2.rar
Parte 3
http://www.filejungle.com/f/gSxACF/O....avi.part3.rar
Parte 4
http://www.filejungle.com/f/5QJ523/O....avi.part4.rar

Servidor #2

Parte 1
http://www.uploadstation.com/file/tb....avi.part1.rar
Parte 2
http://www.uploadstation.com/file/ff....avi.part2.rar
Parte 3
http://www.uploadstation.com/file/Pw....avi.part3.rar
Parte 4
http://www.uploadstation.com/file/Jh....avi.part4.rar
Ver Online
http://videozer.com/video/t3lws

Nota: Si encuentras un link caído avísame para volverlo a subir




O2312 esta offline  
Usuarios que han agradecido este mensaje de O2312
dixdix79 (10/11/12)
Antiguo 22/06/12, 19:55:26   #2
Moderador:
Zona Audiovisual
 
Avatar de jheialcazador
 
Fecha de Ingreso: mar 2012
Ubicación: BOGOTA
Edad: 23
Mensajes: 871
Temas: 242
Has agradecido: 1.575
Has sido agradecido 1.554 veces en 361 mensajes
Poder de Credibilidad: 3777
jheialcazador tiene una reputación que sobrepasa la famajheialcazador tiene una reputación que sobrepasa la famajheialcazador tiene una reputación que sobrepasa la famajheialcazador tiene una reputación que sobrepasa la famajheialcazador tiene una reputación que sobrepasa la famajheialcazador tiene una reputación que sobrepasa la famajheialcazador tiene una reputación que sobrepasa la famajheialcazador tiene una reputación que sobrepasa la famajheialcazador tiene una reputación que sobrepasa la famajheialcazador tiene una reputación que sobrepasa la famajheialcazador tiene una reputación que sobrepasa la fama
Reputación: 188190
Predeterminado Re: El valiente despereaux [DVDRip Animacion Castellano 2008 .Avi US & FJ]

El archivo no está disponible



__________________

DEJA TU GRANITO DE ARENA EN DÁ LAS GRACIAS
Dale Me gusta
Me puedes Seguir
jheialcazador esta offline  
Tema Cerrado

Etiquetas
2008, animacion, avi, castellano, despereaux, dvdrip, el, fj, valiente


Usuarios activos actualmente viendo este tema: 1 (0 miembros y 1 visitantes)
 
Herramientas
Desplegado



El uso horario es GMT -5. La hora actual es: 04:46:27
Powered by vBulletin™ Version 3.8.6
Copyright © 2014 vBulletin Solutions, Inc. All rights reserved.
Traducción por vBHispano
vBulletin Skin by CompletevB
HagalePues.Net 2008 - 2014
SEO by vBSEO ©2011, Crawlability, Inc.