Corto maltes [DVDRip Animacion Castellano 2002 .Avi US & FJ] - Hagale Pues
Header Hágale Pues
Retroceder   Hagale Pues » Foros de conversación » Basura de Hagalepues
Portal Foro Temas de Hoy Registrarse Buscar




Corto maltes [DVDRip Animacion Castellano 2002 .Avi US & FJ]



Tema Cerrado
Herramientas
Antiguo 18/12/11, 12:23:20   #1
Baneado
 
Fecha de Ingreso: nov 2011
Ubicación: En las peliculas
Mensajes: 740
Temas: 726
Has agradecido: 0
Has sido agradecido 6 veces en 6 mensajes
Poder de Credibilidad: 0
O2312 es como un diamante en brutoO2312 es como un diamante en brutoO2312 es como un diamante en brutoO2312 es como un diamante en bruto
Reputación: 335
Predeterminado Corto maltes [DVDRip Animacion Castellano 2002 .Avi US & FJ]





Información del archivo en el servidor
Partes:
Servidores: US & FJ
Tamaño: 702 Mb

Sinopsis
En esta aventura, que se desarrolla unas semanas antes del comienzo de la Primera
Guerra Mundial, Corto Maltés tras ser abandonado por su tripulación, llega al
barco de su viejo conocido Rasputín que tiene secuestrados a dos chicos:
Caín y Pandora. Después, juntos, se acercan a la isla La escondida
a hablar con "El monje" un misterioso personaje que controla
todos los movimientos de piratería de la zona desde
hace al menos un siglo.

Caps





Ficha Tenica

Director: Pascal Moreli
Actores:
Les aventures de Corto Maltese
La ballade de la mer salée
Francia, Italia, Luxemburgo
1hora 30 minutos
Género: Peliculas de Animacion
Peliculas de Aventuras

Datos de ripeo

General

Complete name : files/O2312CORTOMALTESCASTELLANO.avi
Format : AVI
Format/Info : Audio Video Interleave
File size : 702 MiB
Duration : 1h 26mn
Overall bit rate : 1 132 Kbps

Video

ID : 0
Format : MPEG-4 Visual
Format profile : Advanced Simple@L5
Format settings, BVOP : Yes
Format settings, QPel : No
Format settings, GMC : No warppoints
Format settings, Matrix : Default (MPEG)
Muxing mode : Packed bitstream
Codec ID : XVID
Codec ID/Hint : XviD
Duration : 1h 26mn
Bit rate : 1 004 Kbps
Width : 512 pixels
Height : 384 pixels
Display aspect ratio : 4:3
Frame rate : 25.000 fps
Color space : YUV
Chroma subsampling : 4:2:0
Bit depth : 8 bits
Scan type : Progressive
Bits/(Pixel*Frame) : 0.204
Stream size : 622 MiB (89%)
Writing library : XviD 1.0.3 (UTC 2004-12-20)

Audio

ID : 1
Format : MPEG Audio
Format version : Version 1
Format profile : Layer 3
Codec ID : 55
Codec ID/Hint : MP3
Duration : 1h 26mn
Bit rate mode : Variable
Bit rate : 115 Kbps
Minimum bit rate : 96.0 Kbps
Channel(s) : 2 channels
Sampling rate : 44.1 KHz
Stream size : 71.6 MiB (10%)
Alignment : Aligned on interleaves
Interleave, duration : 26 ms (0.65 video frame)
Interleave, preload duration : 480 ms
Writing library : LAME3.92

Descarga
US & FJ

Servidor #1

Parte 1
http://www.filejungle.com/f/Vc2sMd/O....avi.part1.rar
Parte 2
http://www.filejungle.com/f/XbKWM7/O....avi.part2.rar
Parte 3
http://www.filejungle.com/f/mfNPGn/O....avi.part3.rar

Servidor #2

Parte 1
http://www.uploadstation.com/file/8U....avi.part1.rar
Parte 2
http://www.uploadstation.com/file/79....avi.part2.rar
Parte 3
http://www.uploadstation.com/file/tF....avi.part3.rar
Ver Online
http://videozer.com/video/wozh

Nota: Si encuentras un link caído avísame para volverlo a subir




O2312 esta offline  
Antiguo 22/06/12, 19:55:41   #2
Moderador:
Zona Audiovisual
 
Avatar de jheialcazador
 
Fecha de Ingreso: mar 2012
Ubicación: BOGOTA
Edad: 23
Mensajes: 871
Temas: 242
Has agradecido: 1.575
Has sido agradecido 1.554 veces en 361 mensajes
Poder de Credibilidad: 3777
jheialcazador tiene una reputación que sobrepasa la famajheialcazador tiene una reputación que sobrepasa la famajheialcazador tiene una reputación que sobrepasa la famajheialcazador tiene una reputación que sobrepasa la famajheialcazador tiene una reputación que sobrepasa la famajheialcazador tiene una reputación que sobrepasa la famajheialcazador tiene una reputación que sobrepasa la famajheialcazador tiene una reputación que sobrepasa la famajheialcazador tiene una reputación que sobrepasa la famajheialcazador tiene una reputación que sobrepasa la famajheialcazador tiene una reputación que sobrepasa la fama
Reputación: 188190
Predeterminado Re: Corto maltes [DVDRip Animacion Castellano 2002 .Avi US & FJ]

El archivo no está disponible



__________________

DEJA TU GRANITO DE ARENA EN DÁ LAS GRACIAS
Dale Me gusta
Me puedes Seguir
jheialcazador esta offline  
Tema Cerrado

Etiquetas
2002, animacion, avi, castellano, corto, dvdrip, fj, maltes


Usuarios activos actualmente viendo este tema: 1 (0 miembros y 1 visitantes)
 
Herramientas
Desplegado



El uso horario es GMT -5. La hora actual es: 01:12:47
Powered by vBulletin™ Version 3.8.6
Copyright © 2014 vBulletin Solutions, Inc. All rights reserved.
Traducción por vBHispano
vBulletin Skin by CompletevB
HagalePues.Net 2008 - 2014
SEO by vBSEO ©2011, Crawlability, Inc.