La verdadera historia del gato con botas [DVDRip Animacion Castellano 2009 .Avi FJ & US] - Hagale Pues
Header Hágale Pues
Retroceder   Hagale Pues » Foros de conversación » Basura de Hagalepues
Portal Foro Temas de Hoy Registrarse Buscar




La verdadera historia del gato con botas [DVDRip Animacion Castellano 2009 .Avi FJ & US]



Tema Cerrado
Herramientas
Antiguo 17/12/11, 14:50:36   #1
Baneado
 
Fecha de Ingreso: nov 2011
Ubicación: En las peliculas
Mensajes: 740
Temas: 726
Has agradecido: 0
Has sido agradecido 6 veces en 6 mensajes
Poder de Credibilidad: 0
O2312 es como un diamante en brutoO2312 es como un diamante en brutoO2312 es como un diamante en brutoO2312 es como un diamante en bruto
Reputación: 335
Predeterminado La verdadera historia del gato con botas [DVDRip Animacion Castellano 2009 .Avi FJ & US]





Información del archivo en el servidor
Partes: 5
Servidores: FJ & US
Tamaño: 1.06 GB

Sinopsis
Esta es la verdadera historia del gato con botas, una historia llena de alegría y comicidad.
Pues al morir su padre un joven hereda una hermoso gatito, pero realmente este no
sabe el poder que tiene este gatito. Muy pronto el gato le ayudará a
conquistar todas sus metas entre ellas al amor de su vida. Tendrá
que correr muchos riesgos, pero al final
el gato logrará su cometido.

Caps





Ficha Tenica

TÍTULO ORIGINAL:
La véritable histoire du Chat Botté
AÑO: 2009
DURACIÓN: 80 min.
PAÍS: [Francia]
DIRECTOR: Jérôme Deschamps,
Pascal Hérold, Macha Makeïeff
GUIÓN: Jérôme Deschamps,
Pascal Hérold, Macha Makeïeff
(Historia: Charles Perrault)
MÚSICA:
FOTOGRAFÍA: Animation
REPARTO: Animation
PRODUCTORA: MK2 Productions
GÉNERO: Animación. Comedia | Gatos

Datos de ripeo

General

Complete name : files/O2312LAVERDADERAHISTORIADELGATOCONBOTASCASTELLANO. avi
Format : AVI
Format/Info : Audio Video Interleave
Format profile : OpenDML
File size : 1.06 GiB
Duration : 1h 18mn
Overall bit rate : 1 922 Kbps
Writing application : Lavf52.78.4

Video

ID : 0
Format : MPEG-4 Visual
Format profile : Advanced Simple@L5
Format settings, BVOP : Yes
Format settings, QPel : No
Format settings, GMC : No warppoints
Format settings, Matrix : Default (H.263)
Muxing mode : Packed bitstream
Codec ID : DX50
Codec ID/Hint : DivX 5
Duration : 1h 18mn
Bit rate : 1 460 Kbps
Width : 720 pixels
Height : 406 pixels
Display aspect ratio : 16:9
Frame rate : 25.000 fps
Color space : YUV
Chroma subsampling : 4:2:0
Bit depth : 8 bits
Scan type : Progressive
Bits/(Pixel*Frame) : 0.200
Stream size : 823 MiB (76%)
Writing library : XviD 1.2.1 (UTC 2008-12-04)

Audio

ID : 1
Format : AC-3
Format/Info : Audio Coding 3
Mode extension : CM (complete main)
Codec ID : 2000
Duration : 1h 18mn
Bit rate mode : Constant
Bit rate : 448 Kbps
Channel(s) : 6 channels
Channel positions : Front: L C R, Side: L R, LFE
Sampling rate : 48.0 KHz
Bit depth : 16 bits
Stream size : 17.1 MiB (2%)
Alignment : Aligned on interleaves
Interleave, duration : 474 ms (11.85 video frames)
Interleave, preload duration : 32 ms

Descarga
FJ & US

Servidor #1

Parte 1
http://www.filejungle.com/f/HuvHgb/O....avi.part1.rar
Parte 2
http://www.filejungle.com/f/AYS4eG/O....avi.part2.rar
Parte 3
http://www.filejungle.com/f/D5FmjH/O....avi.part3.rar
Parte 4
http://www.filejungle.com/f/gTRcex/O....avi.part4.rar
Parte 5
http://www.filejungle.com/f/erGJTB/O....avi.part5.rar

Servidor #2

Parte 1
http://www.uploadstation.com/file/Ea....avi.part1.rar
Parte 2
http://www.uploadstation.com/file/ka....avi.part2.rar
Parte 3
http://www.uploadstation.com/file/g3....avi.part3.rar
Parte 4
http://www.uploadstation.com/file/hj....avi.part4.rar
Parte 5
http://www.uploadstation.com/file/6v....avi.part5.rar

Nota: Si encuentras un link caído avísame para volverlo a subir




O2312 esta offline  
Antiguo 22/06/12, 19:55:56   #2
Moderador:
Zona Audiovisual
 
Avatar de jheialcazador
 
Fecha de Ingreso: mar 2012
Ubicación: BOGOTA
Edad: 23
Mensajes: 870
Temas: 241
Has agradecido: 1.575
Has sido agradecido 1.551 veces en 361 mensajes
Poder de Credibilidad: 3775
jheialcazador tiene una reputación que sobrepasa la famajheialcazador tiene una reputación que sobrepasa la famajheialcazador tiene una reputación que sobrepasa la famajheialcazador tiene una reputación que sobrepasa la famajheialcazador tiene una reputación que sobrepasa la famajheialcazador tiene una reputación que sobrepasa la famajheialcazador tiene una reputación que sobrepasa la famajheialcazador tiene una reputación que sobrepasa la famajheialcazador tiene una reputación que sobrepasa la famajheialcazador tiene una reputación que sobrepasa la famajheialcazador tiene una reputación que sobrepasa la fama
Reputación: 188115
Predeterminado Re: La verdadera historia del gato con botas [DVDRip Animacion Castellano 2009 .Avi FJ & US]

El archivo no está disponible



__________________

DEJA TU GRANITO DE ARENA EN DÁ LAS GRACIAS
Dale Me gusta
Me puedes Seguir
jheialcazador esta offline  
Tema Cerrado

Etiquetas
2009, animacion, avi, botas, castellano, con, del, dvdrip, fj, gato, historia, la, verdadera


Usuarios activos actualmente viendo este tema: 1 (0 miembros y 1 visitantes)
 
Herramientas
Desplegado



El uso horario es GMT -5. La hora actual es: 00:11:39
Powered by vBulletin™ Version 3.8.6
Copyright © 2014 vBulletin Solutions, Inc. All rights reserved.
Traducción por vBHispano
vBulletin Skin by CompletevB
HagalePues.Net 2008 - 2014
SEO by vBSEO ©2011, Crawlability, Inc.