Ice Age 3 [DVDRip Animacion Castellano 2009 .Avi FJ & US] - Hagale Pues
Header Hágale Pues
Retroceder   Hagale Pues » Foros de conversación » Basura de Hagalepues
Portal Foro Temas de Hoy Registrarse Buscar




Ice Age 3 [DVDRip Animacion Castellano 2009 .Avi FJ & US]



Tema Cerrado
Herramientas
Antiguo 17/12/11, 14:42:31   #1
Baneado
 
Fecha de Ingreso: nov 2011
Ubicación: En las peliculas
Mensajes: 740
Temas: 726
Has agradecido: 0
Has sido agradecido 6 veces en 6 mensajes
Poder de Credibilidad: 0
O2312 es como un diamante en brutoO2312 es como un diamante en brutoO2312 es como un diamante en brutoO2312 es como un diamante en bruto
Reputación: 335
Predeterminado Ice Age 3 [DVDRip Animacion Castellano 2009 .Avi FJ & US]





Información del archivo en el servidor
Partes: 3
Servidores: FJ & US
Tamaño: 697 MB

Sinopsis
Tercera parte de las aventuras de Diego, Scrat y compañía. En esta ocasión, les tocará lidiar
con varios dinosaurios. Scrat sigue intentando apoderarse de la muy escurridiza
bellota (mientras, tal vez, encuentra el verdadero amor); Manny y Ellie esperan
el nacimiento de su mini-mamut; Sid, el perezoso, se mete en un buen
lío al formar de repente una familia propia tras encontrarse unos
huevos de dinosaurio; y Diego, el tigre de dientes de sable, se
pregunta si pasar tanto tiempo con sus amigos no le
estará volviendo demasiado "blandito".

Caps





Ficha Tenica

Título original:
Ice Age: Dawn of the Dinosaurs
Año: 2009
País: Estados Unidos
Directores: Carlos
Saldanha, Mike Thurmeier
Guión: Jeff Siergey
Música: John Powell
Producción: Blue Sky
Studios / Twentieth
Género: Animación,
aventuras, Comedia, Infantil

Datos de ripeo

General

Complete name : files/O2312ICEAGE3ELORIGENDELOSDINOSAURIOSCASTELLANO.avi
Format : AVI
Format/Info : Audio Video Interleave
File size : 697 MiB
Duration : 1h 30mn
Overall bit rate : 1 080 Kbps
Writing application : VirtualDubMod 1.5.10.2 (build 2540/release)
Writing library : VirtualDubMod build 2540/release

Video

ID : 0
Format : MPEG-4 Visual
Format profile : Advanced Simple@L5
Format settings, BVOP : Yes
Format settings, QPel : No
Format settings, GMC : No warppoints
Format settings, Matrix : Default (H.263)
Muxing mode : Packed bitstream
Codec ID : XVID
Codec ID/Hint : XviD
Duration : 1h 30mn
Bit rate : 940 Kbps
Width : 560 pixels
Height : 304 pixels
Display aspect ratio : 16:9
Frame rate : 25.000 fps
Color space : YUV
Chroma subsampling : 4:2:0
Bit depth : 8 bits
Scan type : Progressive
Bits/(Pixel*Frame) : 0.221
Stream size : 606 MiB (87%)
Writing library : XviD 1.2.1 (UTC 2008-12-04)

Audio

ID : 1
Format : MPEG Audio
Format version : Version 1
Format profile : Layer 3
Mode : Joint stereo
Mode extension : MS Stereo
Codec ID : 55
Codec ID/Hint : MP3
Duration : 1h 30mn
Bit rate mode : Variable
Bit rate : 128 Kbps
Channel(s) : 2 channels
Sampling rate : 48.0 KHz
Stream size : 82.0 MiB (12%)
Alignment : Aligned on interleaves
Interleave, duration : 24 ms (0.60 video frame)
Interleave, preload duration : 145 ms
Writing library : LAME3.90.
Encoding settings : -m j -V 4 -q 2 -lowpass 17.6 --abr 128

Descarga
FJ & US

Servidor #1

Parte 1
http://www.filejungle.com/f/6sT4Gc/O....avi.part1.rar
Parte 2
http://www.filejungle.com/f/gyq5ww/O....avi.part2.rar
Parte 3
http://www.filejungle.com/f/VXp8EX/O....avi.part3.rar

Servidor #2

Parte 1
http://www.uploadstation.com/file/Gd....avi.part1.rar
Parte 2
http://www.uploadstation.com/file/pp....avi.part2.rar
Parte 3
http://www.uploadstation.com/file/Cg....avi.part3.rar

Nota: Si encuentras un link caído avísame para volverlo a subir




O2312 esta offline  
Antiguo 22/06/12, 19:56:03   #2
Moderador:
Zona Audiovisual
 
Avatar de jheialcazador
 
Fecha de Ingreso: mar 2012
Ubicación: BOGOTA
Edad: 23
Mensajes: 871
Temas: 242
Has agradecido: 1.575
Has sido agradecido 1.552 veces en 361 mensajes
Poder de Credibilidad: 3776
jheialcazador tiene una reputación que sobrepasa la famajheialcazador tiene una reputación que sobrepasa la famajheialcazador tiene una reputación que sobrepasa la famajheialcazador tiene una reputación que sobrepasa la famajheialcazador tiene una reputación que sobrepasa la famajheialcazador tiene una reputación que sobrepasa la famajheialcazador tiene una reputación que sobrepasa la famajheialcazador tiene una reputación que sobrepasa la famajheialcazador tiene una reputación que sobrepasa la famajheialcazador tiene una reputación que sobrepasa la famajheialcazador tiene una reputación que sobrepasa la fama
Reputación: 188140
Predeterminado Re: Ice Age 3 [DVDRip Animacion Castellano 2009 .Avi FJ & US]

El archivo no está disponible



__________________

DEJA TU GRANITO DE ARENA EN DÁ LAS GRACIAS
Dale Me gusta
Me puedes Seguir
jheialcazador esta offline  
Tema Cerrado

Etiquetas
2009, 3, age, animacion, avi, castellano, dvdrip, fj, ice


Usuarios activos actualmente viendo este tema: 1 (0 miembros y 1 visitantes)
 
Herramientas
Desplegado



El uso horario es GMT -5. La hora actual es: 19:07:25
Powered by vBulletin™ Version 3.8.6
Copyright © 2014 vBulletin Solutions, Inc. All rights reserved.
Traducción por vBHispano
vBulletin Skin by CompletevB
HagalePues.Net 2008 - 2014
SEO by vBSEO ©2011, Crawlability, Inc.