Ice Age 2 [DVDRip Animacion Castellano 2006 .Avi FJ & US] - Hagale Pues
Header Hágale Pues
Retroceder   Hagale Pues » Foros de conversación » Basura de Hagalepues
Portal Foro Temas de Hoy Registrarse Buscar




Ice Age 2 [DVDRip Animacion Castellano 2006 .Avi FJ & US]



Tema Cerrado
Herramientas
Antiguo 17/12/11, 14:36:03   #1
Baneado
 
Fecha de Ingreso: nov 2011
Ubicación: En las peliculas
Mensajes: 740
Temas: 726
Has agradecido: 0
Has sido agradecido 6 veces en 6 mensajes
Poder de Credibilidad: 0
O2312 es como un diamante en brutoO2312 es como un diamante en brutoO2312 es como un diamante en brutoO2312 es como un diamante en bruto
Reputación: 335
Predeterminado Ice Age 2 [DVDRip Animacion Castellano 2006 .Avi FJ & US]





Información del archivo en el servidor
Partes: 3
Servidores: FJ & US
Tamaño: 648 MB

Sinopsis
Continuación de las aventuras de los animales prehistóricos en la "edad de hielo". Esta vez
Manny, Sid y Diego tendrán la misión de informar a los demás animales que la edad
de hielo se acaba, pero que una gigantesca inundación
podría acabar con la preciosa pradera.

Caps





Ficha Tenica

Género:
Infantil, Animación, Aventuras, Comedia
Año: 2006
País: Estados Unidos
Director: Carlos Saldanha
Guión: Jon Vitti
Música: John Powell
Productora: 20th Century Fox
/ Blue Sky Studios / Fox Animation Studios

Datos de ripeo

General

Complete name : files/O2312ICEAGE2ELDESHIELOCASTELLANO.avi
Format : AVI
Format/Info : Audio Video Interleave
File size : 648 MiB
Duration : 1h 20mn
Overall bit rate : 1 130 Kbps
Writing library : VirtualDub build 24478/release

Video

ID : 0
Format : MPEG-4 Visual
Format settings, BVOP : Yes
Format settings, QPel : No
Format settings, GMC : No warppoints
Format settings, Matrix : Default (H.263)
Muxing mode : Packed bitstream
Codec ID : DX50
Codec ID/Hint : DivX 5
Duration : 1h 20mn
Bit rate : 1 025 Kbps
Width : 624 pixels
Height : 336 pixels
Display aspect ratio : 1.857
Frame rate : 25.000 fps
Color space : YUV
Chroma subsampling : 4:2:0
Bit depth : 8 bits
Scan type : Progressive
Bits/(Pixel*Frame) : 0.196
Stream size : 587 MiB (91%)
Writing library : DivX 6.5.1 (UTC 2007-03)

Audio

ID : 1
Format : MPEG Audio
Format version : Version 1
Format profile : Layer 3
Mode : Joint stereo
Mode extension : Intensity Stereo + MS Stereo
Codec ID : 55
Codec ID/Hint : MP3
Duration : 1h 20mn
Bit rate mode : Constant
Bit rate : 96.0 Kbps
Channel(s) : 2 channels
Sampling rate : 48.0 KHz
Stream size : 55.0 MiB (8%)
Alignment : Split accross interleaves
Interleave, duration : 40 ms (1.00 video frame)
Interleave, preload duration : 500 ms

Descarga
FJ & US

Servidor #1

Parte 1
http://www.filejungle.com/f/mQG93T/O....avi.part1.rar
Parte 2
http://www.filejungle.com/f/dTGQy6/O....avi.part2.rar
Parte 3
http://www.filejungle.com/f/NZftNG/O....avi.part3.rar

Servidor #2

Parte 1
http://www.uploadstation.com/file/ck....avi.part1.rar
Parte 2
http://www.uploadstation.com/file/Bd....avi.part2.rar
Parte 3
http://www.uploadstation.com/file/ws....avi.part3.rar

Nota: Si encuentras un link caído avísame para volverlo a subir




O2312 esta offline  
Antiguo 22/06/12, 19:56:10   #2
Moderador:
Zona Audiovisual
 
Avatar de jheialcazador
 
Fecha de Ingreso: mar 2012
Ubicación: BOGOTA
Edad: 23
Mensajes: 871
Temas: 242
Has agradecido: 1.575
Has sido agradecido 1.552 veces en 361 mensajes
Poder de Credibilidad: 3776
jheialcazador tiene una reputación que sobrepasa la famajheialcazador tiene una reputación que sobrepasa la famajheialcazador tiene una reputación que sobrepasa la famajheialcazador tiene una reputación que sobrepasa la famajheialcazador tiene una reputación que sobrepasa la famajheialcazador tiene una reputación que sobrepasa la famajheialcazador tiene una reputación que sobrepasa la famajheialcazador tiene una reputación que sobrepasa la famajheialcazador tiene una reputación que sobrepasa la famajheialcazador tiene una reputación que sobrepasa la famajheialcazador tiene una reputación que sobrepasa la fama
Reputación: 188140
Predeterminado Re: Ice Age 2 [DVDRip Animacion Castellano 2006 .Avi FJ & US]

El archivo no está disponible



__________________

DEJA TU GRANITO DE ARENA EN DÁ LAS GRACIAS
Dale Me gusta
Me puedes Seguir
jheialcazador esta offline  
Tema Cerrado

Etiquetas
2, 2006, age, animacion, avi, castellano, dvdrip, fj, ice


Usuarios activos actualmente viendo este tema: 1 (0 miembros y 1 visitantes)
 
Herramientas
Desplegado



El uso horario es GMT -5. La hora actual es: 21:29:52
Powered by vBulletin™ Version 3.8.6
Copyright © 2014 vBulletin Solutions, Inc. All rights reserved.
Traducción por vBHispano
vBulletin Skin by CompletevB
HagalePues.Net 2008 - 2014
SEO by vBSEO ©2011, Crawlability, Inc.