Gru Mi villano favorito [DVDRip Animacion Castellano 2010 .Avi FJ & US] - Hagale Pues
Header Hágale Pues
Retroceder   Hagale Pues » Foros de conversación » Basura de Hagalepues
Portal Foro Temas de Hoy Registrarse Buscar




Gru Mi villano favorito [DVDRip Animacion Castellano 2010 .Avi FJ & US]



Tema Cerrado
Herramientas
Antiguo 17/12/11, 14:27:09   #1
Baneado
 
Fecha de Ingreso: nov 2011
Ubicación: En las peliculas
Mensajes: 740
Temas: 726
Has agradecido: 0
Has sido agradecido 6 veces en 6 mensajes
Poder de Credibilidad: 0
O2312 es como un diamante en brutoO2312 es como un diamante en brutoO2312 es como un diamante en brutoO2312 es como un diamante en bruto
Reputación: 335
Predeterminado Gru Mi villano favorito [DVDRip Animacion Castellano 2010 .Avi FJ & US]





Información del archivo en el servidor
Partes: 6
Servidores: FJ & US
Tamaño: 1.25 GB

Sinopsis
En una alegre urbanización con cuidados jardines rodeados por verjas de madera pintadas de
blanco y llenos de rosales, sobresale una casa negra con el césped amarillento.
Los vecinos ignoran que debajo de la vivienda hay un enorme escondite secreto.
Allí está Gru (al que presta su voz Steve Carell), rodeado por
un pequeño ejército de lacayos, planeando
el mayor robo de toda la historia.

Caps





Ficha Tenica

Título: Gru: Mi villano favorito
Título original: Despicable Me
País: USA
Estreno en USA: 09/07/2010
Estreno en España: 08/10/2010
Estreno en DVD (venta): 16/02/2011
Estreno en Blu-Ray (3D): 16/02/2011
Estreno en Blu-ray: 16/02/2011
Productora: Universal Pictures
Director: Chris Renaud & Pierre Coffin
Guión: Cinco Paul & Ken Daurio

Datos de ripeo

General

Complete name : files/O2312GRUMIVILLANOFAVORITOCASTELLANO.avi
Format : AVI
Format/Info : Audio Video Interleave
File size : 1.25 GiB
Duration : 1h 34mn
Overall bit rate : 1 892 Kbps
Movie name : DESPICABLE_ME_G51.Title800.BlurayRip
Writing application : VirtualDubMod 1.5.10.2 (build 2540/release)
Writing library : VirtualDubMod build 2540/release

Video

ID : 0
Format : MPEG-4 Visual
Format profile : Advanced Simple@L5
Format settings, BVOP : Yes
Format settings, QPel : No
Format settings, GMC : No warppoints
Format settings, Matrix : Default (H.263)
Muxing mode : Packed bitstream
Codec ID : XVID
Codec ID/Hint : XviD
Duration : 1h 34mn
Bit rate : 1 434 Kbps
Width : 720 pixels
Height : 390 pixels
Display aspect ratio : 16:9
Frame rate : 23.976 fps
Color space : YUV
Chroma subsampling : 4:2:0
Bit depth : 8 bits
Scan type : Progressive
Bits/(Pixel*Frame) : 0.213
Stream size : 971 MiB (76%)
Writing library : XviD 1.2.1 (UTC 2008-12-04)

Audio

ID : 1
Format : AC-3
Format/Info : Audio Coding 3
Mode extension : CM (complete main)
Codec ID : 2000
Duration : 1h 34mn
Bit rate mode : Constant
Bit rate : 448 Kbps
Channel(s) : 6 channels
Channel positions : Front: L C R, Side: L R, LFE
Sampling rate : 48.0 KHz
Bit depth : 16 bits
Stream size : 303 MiB (24%)
Alignment : Split accross interleaves
Interleave, duration : 42 ms (1.00 video frame)
Interleave, preload duration : 500 ms

Descarga
FJ & US

Servidor #1

Parte 1
http://www.filejungle.com/f/Wg7GmV/O....avi.part1.rar
Parte 2
http://www.filejungle.com/f/25MdyS/O....avi.part2.rar
Parte 3
http://www.filejungle.com/f/upCep3/O....avi.part3.rar
Parte 4
http://www.filejungle.com/f/QJFbVs/O....avi.part4.rar
Parte 5
http://www.filejungle.com/f/S3w4A4/O....avi.part5.rar
Parte 6
http://www.filejungle.com/f/4zBjcx/O....avi.part6.rar

Servidor #2

Parte 1
http://www.uploadstation.com/file/KR....avi.part1.rar
Parte 2
http://www.uploadstation.com/file/zE....avi.part2.rar
Parte 3
http://www.uploadstation.com/file/VG....avi.part3.rar
Parte 4
http://www.uploadstation.com/file/5J....avi.part4.rar
Parte 5
http://www.uploadstation.com/file/CB....avi.part5.rar
Parte 6
http://www.uploadstation.com/file/Wy....avi.part6.rar

Nota: Si encuentras un link caído avísame para volverlo a subir




O2312 esta offline  
Antiguo 22/06/12, 19:56:17   #2
Moderador:
Zona Audiovisual
 
Avatar de jheialcazador
 
Fecha de Ingreso: mar 2012
Ubicación: BOGOTA
Edad: 23
Mensajes: 871
Temas: 242
Has agradecido: 1.575
Has sido agradecido 1.554 veces en 361 mensajes
Poder de Credibilidad: 3777
jheialcazador tiene una reputación que sobrepasa la famajheialcazador tiene una reputación que sobrepasa la famajheialcazador tiene una reputación que sobrepasa la famajheialcazador tiene una reputación que sobrepasa la famajheialcazador tiene una reputación que sobrepasa la famajheialcazador tiene una reputación que sobrepasa la famajheialcazador tiene una reputación que sobrepasa la famajheialcazador tiene una reputación que sobrepasa la famajheialcazador tiene una reputación que sobrepasa la famajheialcazador tiene una reputación que sobrepasa la famajheialcazador tiene una reputación que sobrepasa la fama
Reputación: 188190
Predeterminado Re: Gru Mi villano favorito [DVDRip Animacion Castellano 2010 .Avi FJ & US]

El archivo no está disponible



__________________

DEJA TU GRANITO DE ARENA EN DÁ LAS GRACIAS
Dale Me gusta
Me puedes Seguir
jheialcazador esta offline  
Tema Cerrado

Etiquetas
2010, animacion, avi, castellano, dvdrip, favorito, fj, gru, mi, villano


Usuarios activos actualmente viendo este tema: 1 (0 miembros y 1 visitantes)
 
Herramientas
Desplegado



El uso horario es GMT -5. La hora actual es: 02:26:33
Powered by vBulletin™ Version 3.8.6
Copyright © 2014 vBulletin Solutions, Inc. All rights reserved.
Traducción por vBHispano
vBulletin Skin by CompletevB
HagalePues.Net 2008 - 2014
SEO by vBSEO ©2011, Crawlability, Inc.