Ga hoole La leyenda de los guardianes [DVDRip Animacion Castellano 2010 .Avi FJ & US] - Hagale Pues
Header Hágale Pues
Retroceder   Hagale Pues » Foros de conversación » Basura de Hagalepues
Portal Foro Temas de Hoy Registrarse Buscar




Ga hoole La leyenda de los guardianes [DVDRip Animacion Castellano 2010 .Avi FJ & US]



Tema Cerrado
Herramientas
Antiguo 17/12/11, 14:12:44   #1
Baneado
 
Fecha de Ingreso: nov 2011
Ubicación: En las peliculas
Mensajes: 740
Temas: 726
Has agradecido: 0
Has sido agradecido 6 veces en 6 mensajes
Poder de Credibilidad: 0
O2312 es como un diamante en brutoO2312 es como un diamante en brutoO2312 es como un diamante en brutoO2312 es como un diamante en bruto
Reputación: 335
Predeterminado Ga hoole La leyenda de los guardianes [DVDRip Animacion Castellano 2010 .Avi FJ & US]





Información del archivo en el servidor
Partes: 6
Servidores: FJ & US
Tamaño: 2.36 GB

Sinopsis
Recrea las aventuras de Soren, un joven búho cautivado por las historias épicas de su padre
sobre los Guardianes de Ga’Hoole, una mítica banda de guerreros alados que lidiaron
una dura batalla para salvar a toda la población de búhos
de los malvados Pure Ones (Los Puros).

Caps





Ficha Tenica

Título: Ga'Hoole.
La Leyenda de los Guardianes
Título original:
Legend of the Guardians: The owls of Ga'Hoole
País: USA
Estreno en USA: 24/09/2010
Estreno en España: 22/10/2010
Productora: Warner Bros. Pictures
Director: Zack Snyder

Datos de ripeo

General

Complete name : files/O2312GAHOOLELALEYENDADELOSGUARDIANESCASTELLANO.avi
Format : AVI
Format/Info : Audio Video Interleave
Format profile : OpenDML
File size : 2.36 GiB
Duration : 1h 36mn
Overall bit rate : 3 487 Kbps
Movie name : OneDDL.com-cbgb-legendaryguardians720
Writing application : VirtualDubMod 1.5.10.2 (build 2540/release)
Writing library : VirtualDubMod build 2540/release

Video

ID : 0
Format : MPEG-4 Visual
Format profile : Simple@L3
Format settings, BVOP : No
Format settings, QPel : No
Format settings, GMC : No warppoints
Format settings, Matrix : Default (H.263)
Codec ID : XVID
Codec ID/Hint : XviD
Duration : 1h 36mn
Bit rate : 3 155 Kbps
Width : 1 248 pixels
Height : 528 pixels
Display aspect ratio : 2.35:1
Frame rate : 23.976 fps
Color space : YUV
Chroma subsampling : 4:2:0
Bit depth : 8 bits
Scan type : Progressive
Bits/(Pixel*Frame) : 0.200
Stream size : 2.13 GiB (90%)
Writing library : XviD 1.2.1 (UTC 2008-12-04)

Audio

ID : 1
Format : AC-3
Format/Info : Audio Coding 3
Mode extension : CM (complete main)
Codec ID : 2000
Duration : 1h 36mn
Bit rate mode : Constant
Bit rate : 320 Kbps
Channel(s) : 2 channels
Channel positions : Front: L R
Sampling rate : 48.0 KHz
Bit depth : 16 bits
Stream size : 222 MiB (9%)
Alignment : Split accross interleaves
Interleave, duration : 42 ms (1.00 video frame)
Interleave, preload duration : 500 ms

Descarga
FJ & US

Servidor #1

Parte 1
http://www.filejungle.com/f/Z2fEk2/O....avi.part1.rar
Parte 2
http://www.filejungle.com/f/pfj6DC/O....avi.part2.rar
Parte 3
http://www.filejungle.com/f/rRBbkc/O....avi.part4.rar
Parte 4
http://www.filejungle.com/f/pHuNkZ/O....avi.part5.rar
Parte 5
http://www.filejungle.com/f/uCxj6K/O....avi.part6.rar

Servidor #2

Parte 1
http://www.uploadstation.com/file/e8....avi.part1.rar
Parte 2
http://www.uploadstation.com/file/av....avi.part2.rar
Parte 3
http://www.uploadstation.com/file/8m....avi.part3.rar
Parte 4
http://www.uploadstation.com/file/ef....avi.part4.rar
Parte 5
http://www.uploadstation.com/file/2n....avi.part5.rar
Parte 6
http://www.uploadstation.com/file/gw....avi.part6.rar

Nota: Si encuentras un link caído avísame para volverlo a subir




O2312 esta offline  
Antiguo 22/06/12, 19:56:23   #2
Moderador:
Zona Audiovisual
 
Avatar de jheialcazador
 
Fecha de Ingreso: mar 2012
Ubicación: BOGOTA
Edad: 23
Mensajes: 859
Temas: 230
Has agradecido: 1.568
Has sido agradecido 1.517 veces en 352 mensajes
Poder de Credibilidad: 3757
jheialcazador tiene una reputación que sobrepasa la famajheialcazador tiene una reputación que sobrepasa la famajheialcazador tiene una reputación que sobrepasa la famajheialcazador tiene una reputación que sobrepasa la famajheialcazador tiene una reputación que sobrepasa la famajheialcazador tiene una reputación que sobrepasa la famajheialcazador tiene una reputación que sobrepasa la famajheialcazador tiene una reputación que sobrepasa la famajheialcazador tiene una reputación que sobrepasa la famajheialcazador tiene una reputación que sobrepasa la famajheialcazador tiene una reputación que sobrepasa la fama
Reputación: 187265
Predeterminado Re: Ga hoole La leyenda de los guardianes [DVDRip Animacion Castellano 2010 .Avi FJ & US]

El archivo no está disponible



__________________

DEJA TU GRANITO DE ARENA EN DÁ LAS GRACIAS
Dale Me gusta
Me puedes Seguir
jheialcazador esta offline  
Tema Cerrado

Etiquetas
2010, animacion, avi, castellano, de, dvdrip, fj, ga, guardianes, hoole, la, leyenda, los


Usuarios activos actualmente viendo este tema: 1 (0 miembros y 1 visitantes)
 
Herramientas
Desplegado



El uso horario es GMT -5. La hora actual es: 19:37:13
Powered by vBulletin™ Version 3.8.6
Copyright © 2014 vBulletin Solutions, Inc. All rights reserved.
Traducción por vBHispano
vBulletin Skin by CompletevB
HagalePues.Net 2008 - 2014
SEO by vBSEO ©2011, Crawlability, Inc.