Final fantasy La fuerza interior [DVDRip Animacion Castellano 2001 .Avi FJ & US] - Hagale Pues
Header Hágale Pues
Retroceder   Hagale Pues » Foros de conversación » Basura de Hagalepues
Portal Foro Temas de Hoy Registrarse Buscar




Final fantasy La fuerza interior [DVDRip Animacion Castellano 2001 .Avi FJ & US]



Tema Cerrado
Herramientas
Antiguo 17/12/11, 14:01:45   #1
Baneado
 
Fecha de Ingreso: nov 2011
Ubicación: En las peliculas
Mensajes: 740
Temas: 726
Has agradecido: 0
Has sido agradecido 6 veces en 6 mensajes
Poder de Credibilidad: 0
O2312 es como un diamante en brutoO2312 es como un diamante en brutoO2312 es como un diamante en brutoO2312 es como un diamante en bruto
Reputación: 335
Predeterminado Final fantasy La fuerza interior [DVDRip Animacion Castellano 2001 .Avi FJ & US]





Información del archivo en el servidor
Partes: 3
Servidores: FJ & US
Tamaño: 693 MB

Sinopsis
La doctora Aki Ross es una investigadora que se desplaza por las ruinas de lo que queda
de nuestra civilización buscando los espíritus de seres vivos que puedan completar
la cadena necesaria de 8 que neutralizarán a los fantasmas
venidos del espacio. Su búsqueda no es fácil, ya
que se enfrenta a los espectros invasores que
ahora dominan el planeta, pero si ella
falla, nada podrá salvar la vida
conocida por nosotros.

Caps





Ficha Tenica

Género: Animación -
Fantasía - Aventuras.
Año: 2001.
Director:
Hironobu Sakaguchi
Actores: Unos personajes
espectacularmente
creados por ordenador.
Formato: DVDRip

Datos de ripeo

General

Complete name : files/O2312FINALFANTASYLAFUERZAINTERIORCASTELLANO.avi
Format : AVI
Format/Info : Audio Video Interleave
File size : 693 MiB
Duration : 1h 41mn
Overall bit rate : 953 Kbps
Writing application : Nandub v1.0rc2
Writing library : Nandub build 1852/release

Video

ID : 0
Format : MPEG-4 Visual
Codec ID : DIV3
Codec ID/Hint : DivX 3 Low
Duration : 1h 41mn
Bit rate : 837 Kbps
Width : 544 pixels
Height : 288 pixels
Display aspect ratio : 1.889
Frame rate : 25.000 fps
Color space : YUV
Chroma subsampling : 4:2:0
Bit depth : 8 bits
Bits/(Pixel*Frame) : 0.214
Stream size : 609 MiB (88%)

Audio

ID : 1
Format : MPEG Audio
Format version : Version 1
Format profile : Layer 3
Mode : Joint stereo
Codec ID : 55
Codec ID/Hint : MP3
Duration : 1h 41mn
Bit rate mode : Variable
Bit rate : 103 Kbps
Channel(s) : 2 channels
Sampling rate : 48.0 KHz
Stream size : 74.8 MiB (11%)
Alignment : Aligned on interleaves
Interleave, duration : 24 ms (0.60 video frame)
Interleave, preload duration : 171 ms
Writing library : LAME3.90
Encoding settings : -m m -V 4 -q 5 -lowpass 9.7

Descarga
FJ & US

Servidor #1

Parte 1
http://www.filejungle.com/f/XdAx8r/O....avi.part1.rar
Parte 2
http://www.filejungle.com/f/NfUxSS/O....avi.part2.rar
Parte 3
http://www.filejungle.com/f/ENTKDQ/O....avi.part3.rar

Servidor #2

Parte 1
http://www.uploadstation.com/file/q6....avi.part1.rar
Parte 2
http://www.uploadstation.com/file/Ju....avi.part2.rar
Parte 3
http://www.uploadstation.com/file/mP....avi.part3.rar

Nota: Si encuentras un link caído avísame para volverlo a subir




O2312 esta offline  
Antiguo 22/06/12, 19:56:30   #2
Moderador:
Zona Audiovisual
 
Avatar de jheialcazador
 
Fecha de Ingreso: mar 2012
Ubicación: BOGOTA
Edad: 23
Mensajes: 859
Temas: 230
Has agradecido: 1.568
Has sido agradecido 1.517 veces en 352 mensajes
Poder de Credibilidad: 3757
jheialcazador tiene una reputación que sobrepasa la famajheialcazador tiene una reputación que sobrepasa la famajheialcazador tiene una reputación que sobrepasa la famajheialcazador tiene una reputación que sobrepasa la famajheialcazador tiene una reputación que sobrepasa la famajheialcazador tiene una reputación que sobrepasa la famajheialcazador tiene una reputación que sobrepasa la famajheialcazador tiene una reputación que sobrepasa la famajheialcazador tiene una reputación que sobrepasa la famajheialcazador tiene una reputación que sobrepasa la famajheialcazador tiene una reputación que sobrepasa la fama
Reputación: 187265
Predeterminado Re: Final fantasy La fuerza interior [DVDRip Animacion Castellano 2001 .Avi FJ & US]

El archivo no está disponible



__________________

DEJA TU GRANITO DE ARENA EN DÁ LAS GRACIAS
Dale Me gusta
Me puedes Seguir
jheialcazador esta offline  
Tema Cerrado

Etiquetas
2001, animacion, avi, castellano, dvdrip, fantasy, final, fj, fuerza, interior, la


Usuarios activos actualmente viendo este tema: 1 (0 miembros y 1 visitantes)
 
Herramientas
Desplegado



El uso horario es GMT -5. La hora actual es: 11:12:24
Powered by vBulletin™ Version 3.8.6
Copyright © 2014 vBulletin Solutions, Inc. All rights reserved.
Traducción por vBHispano
vBulletin Skin by CompletevB
HagalePues.Net 2008 - 2014
SEO by vBSEO ©2011, Crawlability, Inc.