El expreso polar [DVDRip Animacion Castellano 2004 .Avi FJ & US] - Hagale Pues
Header Hágale Pues
Retroceder   Hagale Pues » Foros de conversación » Basura de Hagalepues
Portal Foro Temas de Hoy Registrarse Buscar




El expreso polar [DVDRip Animacion Castellano 2004 .Avi FJ & US]



Tema Cerrado
Herramientas
Antiguo 17/12/11, 13:54:51   #1
Baneado
 
Fecha de Ingreso: nov 2011
Ubicación: En las peliculas
Mensajes: 740
Temas: 726
Has agradecido: 0
Has sido agradecido 6 veces en 6 mensajes
Poder de Credibilidad: 0
O2312 es como un diamante en brutoO2312 es como un diamante en brutoO2312 es como un diamante en brutoO2312 es como un diamante en bruto
Reputación: 335
Predeterminado El expreso polar [DVDRip Animacion Castellano 2004 .Avi FJ & US]





Información del archivo en el servidor
Partes: 3
Servidores: FJ & US
Tamaño: 697 MB

Sinopsis
Un niño, en una noche nevada de navidad, se embarca en un extraordinario viaje en tren hacia
el Polo Norte. En ese momento el chico emprenderá una aventura para conocerse
a sí mismo que le enseñará que la magia de la vida nunca
desaparece para aquellos que creen.

Caps





Ficha Tenica

TÍTULO ORIGINAL The Polar Express
AÑO 2004
DURACIÓN 97 min. Trailers/Vídeos
PAÍS Sección visual
DIRECTOR Robert Zemeckis
GUIÓN Robert Zemeckis & William
Broyles Jr. (Libro:
Chris Van Allsburg)
MÚSICA Alan Silvestri
FOTOGRAFÍA Don Burgess
REPARTO Animation
PRODUCTORA Warner
Bros. Pictures /
Castle Rock Entertainment
presentan una producción Playtone
WEB OFICIAL http://
polarexpressmovie.warnerbros.com/
PREMIOS 2004: 3 nominaciones al
Oscar: Mejor canción original,
sonido, efectos de sonido
2004 : Nominada al Globo de
Oro: Mejor canción original
2004 : BAFTA: Mejor
película infantil
GÉNERO Animación.
Aventuras Fantástico. Infantil |

Datos de ripeo

General

Complete name : files/O2312ELERESOPOLARCASTELLANO.avi
Format : AVI
Format/Info : Audio Video Interleave
File size : 697 MiB
Duration : 1h 35mn
Overall bit rate : 1 018 Kbps
Writing application : VirtualDubMod 1.5.10.2 (build 2540/release)
Writing library : VirtualDubMod build 2540/release

Video

ID : 0
Format : MPEG-4 Visual
Format profile : Simple@L3
Format settings, BVOP : Yes
Format settings, QPel : No
Format settings, GMC : No warppoints
Format settings, Matrix : Default (H.263)
Muxing mode : Packed bitstream
Codec ID : XVID
Codec ID/Hint : XviD
Duration : 1h 35mn
Bit rate : 878 Kbps
Width : 576 pixels
Height : 240 pixels
Display aspect ratio : 2.40:1
Frame rate : 25.000 fps
Color space : YUV
Chroma subsampling : 4:2:0
Bit depth : 8 bits
Scan type : Progressive
Bits/(Pixel*Frame) : 0.254
Stream size : 601 MiB (86%)
Writing library : XviD 1.0.3 (UTC 2004-12-20)

Audio

ID : 1
Format : MPEG Audio
Format version : Version 1
Format profile : Layer 3
Mode : Joint stereo
Mode extension : MS Stereo
Codec ID : 55
Codec ID/Hint : MP3
Duration : 1h 35mn
Bit rate mode : Variable
Bit rate : 128 Kbps
Channel(s) : 2 channels
Sampling rate : 48.0 KHz
Stream size : 87.2 MiB (13%)
Alignment : Aligned on interleaves
Interleave, duration : 24 ms (0.60 video frame)
Interleave, preload duration : 386 ms
Writing library : LAME3.93a
Encoding settings : -m j -V 4 -q 2 -lowpass 17.5 --abr 128

Descarga
FJ & US

Servidor #1

Parte 1
http://www.filejungle.com/f/E6Thdj/O....avi.part1.rar
Parte 2
http://www.filejungle.com/f/YzRasz/O....avi.part2.rar
Parte 3
http://www.filejungle.com/f/tqrWaR/O....avi.part3.rar

Servidor #2

Parte 1
http://www.uploadstation.com/file/Hv....avi.part1.rar
Parte 2
http://www.uploadstation.com/file/CN....avi.part2.rar
Parte 3
http://www.uploadstation.com/file/x8....avi.part3.rar

Nota: Si encuentras un link caído avísame para volverlo a subir




O2312 esta offline  
Antiguo 22/06/12, 19:58:43   #2
Moderador:
Zona Audiovisual
 
Avatar de jheialcazador
 
Fecha de Ingreso: mar 2012
Ubicación: BOGOTA
Edad: 23
Mensajes: 871
Temas: 235
Has agradecido: 1.575
Has sido agradecido 1.554 veces en 361 mensajes
Poder de Credibilidad: 3777
jheialcazador tiene una reputación que sobrepasa la famajheialcazador tiene una reputación que sobrepasa la famajheialcazador tiene una reputación que sobrepasa la famajheialcazador tiene una reputación que sobrepasa la famajheialcazador tiene una reputación que sobrepasa la famajheialcazador tiene una reputación que sobrepasa la famajheialcazador tiene una reputación que sobrepasa la famajheialcazador tiene una reputación que sobrepasa la famajheialcazador tiene una reputación que sobrepasa la famajheialcazador tiene una reputación que sobrepasa la famajheialcazador tiene una reputación que sobrepasa la fama
Reputación: 188190
Predeterminado Re: El expreso polar [DVDRip Animacion Castellano 2004 .Avi FJ & US]

El archivo no está disponible



__________________

DEJA TU GRANITO DE ARENA EN DÁ LAS GRACIAS
Dale Me gusta
Me puedes Seguir
jheialcazador esta offline  
Tema Cerrado

Etiquetas
2004, animacion, avi, castellano, dvdrip, el, expreso, fj, polar


Usuarios activos actualmente viendo este tema: 1 (0 miembros y 1 visitantes)
 
Herramientas
Desplegado



El uso horario es GMT -5. La hora actual es: 23:49:47
Powered by vBulletin™ Version 3.8.6
Copyright © 2014 vBulletin Solutions, Inc. All rights reserved.
Traducción por vBHispano
vBulletin Skin by CompletevB
HagalePues.Net 2008 - 2014
SEO by vBSEO ©2011, Crawlability, Inc.