Doraemon atlantis [DVDRip Animacion Castellano 2011 .Avi FJ & US] - Hagale Pues
Header Hágale Pues
Retroceder   Hagale Pues » Foros de conversación » Basura de Hagalepues
Portal Foro Temas de Hoy Registrarse Buscar




Doraemon atlantis [DVDRip Animacion Castellano 2011 .Avi FJ & US]



Tema Cerrado
Herramientas
Antiguo 17/12/11, 13:45:38   #1
Baneado
 
Fecha de Ingreso: nov 2011
Ubicación: En las peliculas
Mensajes: 740
Temas: 726
Has agradecido: 0
Has sido agradecido 6 veces en 6 mensajes
Poder de Credibilidad: 0
O2312 es como un diamante en brutoO2312 es como un diamante en brutoO2312 es como un diamante en brutoO2312 es como un diamante en bruto
Reputación: 335
Predeterminado Doraemon atlantis [DVDRip Animacion Castellano 2011 .Avi FJ & US]





Información del archivo en el servidor
Partes: 5
Servidores: FJ & US
Tamaño: 1.06 GB

Sinopsis
Nobita y sus amigos quieren irse de acampada unos días pero no consiguen ponerse de acuerdo.
Irán al mar o a la montaña?. Por suerte, Doraemon tiene la solución perfecta: una
acampada submarina mientras escalan las enormes montañas que se extienden bajo el
agua. De este modo, el grupo se dirige a las profundidades del Atlántico a
bordo de un hydrobuggy y allí descubren un nuevo universo.

Caps





Ficha Tenica

Director:
Género: Animación.
Año:2011
Duración: 97 min.
Nacionalidad: Japón.
Calificación:
Autorizada para
todos los públicos
Distribuidora:
The Walt Disney

Datos de ripeo

General

Complete name : files/O2312DORAEMONATLANTISELCASTILLODELMALCASTELLANO.av i
Format : AVI
Format/Info : Audio Video Interleave
File size : 1.06 GiB
Duration : 1h 31mn
Overall bit rate : 1 663 Kbps


Video

ID : 0
Format : MPEG-4 Visual
Format profile : Simple@L3
Format settings, BVOP : No
Format settings, QPel : No
Format settings, GMC : No warppoints
Format settings, Matrix : Default (H.263)
Codec ID : XVID
Codec ID/Hint : XviD
Duration : 1h 31mn
Bit rate : 1 396 Kbps
Width : 720 pixels
Height : 406 pixels
Display aspect ratio : 16:9
Frame rate : 25.000 fps
Color space : YUV
Chroma subsampling : 4:2:0
Bit depth : 8 bits
Scan type : Progressive
Bits/(Pixel*Frame) : 0.191
Stream size : 910 MiB (84%)
Writing library : XviD 1.2.1 (UTC 2008-12-04)

Audio

ID : 1
Format : AC-3
Format/Info : Audio Coding 3
Mode extension : CM (complete main)
Codec ID : 2000
Duration : 1h 31mn
Bit rate mode : Constant
Bit rate : 192 Kbps
Channel(s) : 2 channels
Channel positions : Front: L R
Sampling rate : 48.0 KHz
Bit depth : 16 bits
Stream size : 125 MiB (12%)
Alignment : Aligned on interleaves

Descarga
FJ & US

Servidor #1

Parte 1
http://www.filejungle.com/f/3yjZEa/O....avi.part1.rar
Parte 2
http://www.filejungle.com/f/jbnGtH/O....avi.part2.rar
Parte 3
http://www.filejungle.com/f/gvKuu6/O....avi.part3.rar
Parte 4
http://www.filejungle.com/f/JjQZrQ/O....avi.part4.rar
Parte 5
http://www.filejungle.com/f/PS6AsX/O....avi.part5.rar

Servidor #2

Parte 1
http://www.uploadstation.com/file/62....avi.part1.rar
Parte 2
http://www.uploadstation.com/file/a7....avi.part2.rar
Parte 3
http://www.uploadstation.com/file/km....avi.part3.rar
Parte 4
http://www.uploadstation.com/file/sv....avi.part4.rar
Parte 5
http://www.uploadstation.com/file/Dx....avi.part5.rar

Nota: Si encuentras un link caído avísame para volverlo a subir




O2312 esta offline  
Antiguo 22/06/12, 19:58:53   #2
Moderador:
Zona Audiovisual
 
Avatar de jheialcazador
 
Fecha de Ingreso: mar 2012
Ubicación: BOGOTA
Edad: 23
Mensajes: 859
Temas: 230
Has agradecido: 1.568
Has sido agradecido 1.517 veces en 352 mensajes
Poder de Credibilidad: 3757
jheialcazador tiene una reputación que sobrepasa la famajheialcazador tiene una reputación que sobrepasa la famajheialcazador tiene una reputación que sobrepasa la famajheialcazador tiene una reputación que sobrepasa la famajheialcazador tiene una reputación que sobrepasa la famajheialcazador tiene una reputación que sobrepasa la famajheialcazador tiene una reputación que sobrepasa la famajheialcazador tiene una reputación que sobrepasa la famajheialcazador tiene una reputación que sobrepasa la famajheialcazador tiene una reputación que sobrepasa la famajheialcazador tiene una reputación que sobrepasa la fama
Reputación: 187265
Predeterminado Re: Doraemon atlantis [DVDRip Animacion Castellano 2011 .Avi FJ & US]

El archivo no está disponible



__________________

DEJA TU GRANITO DE ARENA EN DÁ LAS GRACIAS
Dale Me gusta
Me puedes Seguir
jheialcazador esta offline  
Tema Cerrado

Etiquetas
2011, animacion, atlantis, avi, castellano, doraemon, dvdrip, fj


Usuarios activos actualmente viendo este tema: 1 (0 miembros y 1 visitantes)
 
Herramientas
Desplegado



El uso horario es GMT -5. La hora actual es: 04:27:36
Powered by vBulletin™ Version 3.8.6
Copyright © 2014 vBulletin Solutions, Inc. All rights reserved.
Traducción por vBHispano
vBulletin Skin by CompletevB
HagalePues.Net 2008 - 2014
SEO by vBSEO ©2011, Crawlability, Inc.