Chicken Run Evacion en la granja [DVDRip Animacion Castellano 2000 .Avi FJ & US] - Hagale Pues
Header Hágale Pues
Retroceder   Hagale Pues » Foros de conversación » Basura de Hagalepues
Portal Foro Temas de Hoy Registrarse Buscar




Chicken Run Evacion en la granja [DVDRip Animacion Castellano 2000 .Avi FJ & US]



Tema Cerrado
Herramientas
Antiguo 17/12/11, 13:36:57   #1
Baneado
 
Fecha de Ingreso: nov 2011
Ubicación: En las peliculas
Mensajes: 740
Temas: 726
Has agradecido: 0
Has sido agradecido 6 veces en 6 mensajes
Poder de Credibilidad: 0
O2312 es como un diamante en brutoO2312 es como un diamante en brutoO2312 es como un diamante en brutoO2312 es como un diamante en bruto
Reputación: 335
Predeterminado Chicken Run Evacion en la granja [DVDRip Animacion Castellano 2000 .Avi FJ & US]





Información del archivo en el servidor
Partes: 3
Servidores: FJ & US
Tamaño: 702 MB

Sinopsis
La señora Tweedy es la dueña de una granja en la que la mayoría de las aves se han resignado
a llevar una vida corta e infeliz: viven mientras ponen huevos y, cuando dejan de
hacerlo, acaban en la mesa como comida de los domingos. Pero las cosas empiezan
a cambiar con la llegada de Rocky, un gallo norteamericano, que mantiene
un romance con Ginger, una gallina muy combativa que ha organizado
innumerables intentos de fuga para alcanzar una vida mejor.

Caps





Ficha Tenica

TÍTULO ORIGINAL Chicken Run
AÑO 2000
DURACIÓN 84 min. Trailers
PAÍS
DIRECTOR Nick Park, Peter Lord
GUIÓN Karey Kirkpatrick
(Historia: Peter
Lord & Nick Park)
MÚSICA Harry Gregson
FOTOGRAFÍA Animation
REPARTO Animation
PRODUCTORA DreamWorks SKG
Aardman Animations
Pathé Pictures International
GÉNERO Animación. Infantil.
CALIDAD Dvdrip avi,
PESO:700 MB
IDIOMA: español

Datos de ripeo

General

Complete name : files/O2312CHICKENRUNCASTELLANO.avi
Format : AVI
Format/Info : Audio Video Interleave
File size : 702 MiB
Duration : 1h 21mn
Overall bit rate : 1 202 Kbps
Writing application : Nandub v1.0rc2
Writing library : Nandub build 1853/release

Video

ID : 0
Format : MPEG-4 Visual
Format profile : Advanced Simple@L5
Format settings, BVOP : Yes
Format settings, QPel : No
Format settings, GMC : No warppoints
Format settings, Matrix : Default (H.263)
Codec ID : XVID
Codec ID/Hint : XviD
Duration : 1h 21mn
Bit rate : 809 Kbps
Width : 584 pixels
Height : 320 pixels
Display aspect ratio : 16:9
Frame rate : 25.000 fps
Color space : YUV
Chroma subsampling : 4:2:0
Bit depth : 8 bits
Scan type : Progressive
Bits/(Pixel*Frame) : 0.173
Stream size : 472 MiB (67%)
Writing library : XviD 1.0.1 (UTC 2004-06-05)

Audio

ID : 1
Format : AC-3
Format/Info : Audio Coding 3
Mode extension : CM (complete main)
Codec ID : 2000
Duration : 1h 21mn
Bit rate mode : Constant
Bit rate : 384 Kbps
Channel(s) : 6 channels
Channel positions : Front: L C R, Side: L R, LFE
Sampling rate : 48.0 KHz
Bit depth : 16 bits
Stream size : 224 MiB (32%)
Alignment : Split accross interleaves
Interleave, duration : 40 ms (1.00 video frame)
Interleave, preload duration : 500 ms

Descarga
FJ & US

Servidor #1

Parte 1
http://www.filejungle.com/f/XMzfqG/O....avi.part1.rar
Parte 2
http://www.filejungle.com/f/9BtmQq/O....avi.part2.rar
Parte 3
http://www.filejungle.com/f/TdHgg9/O....avi.part3.rar

Servidor #2

Parte 1
http://www.uploadstation.com/file/2G....avi.part1.rar
Parte 2
http://www.uploadstation.com/file/bq....avi.part2.rar
Parte 3
http://www.uploadstation.com/file/qG....avi.part3.rar

Nota: Si encuentras un link caído avísame para volverlo a subir




O2312 esta offline  
Antiguo 22/06/12, 19:59:00   #2
Moderador:
Zona Audiovisual
 
Avatar de jheialcazador
 
Fecha de Ingreso: mar 2012
Ubicación: BOGOTA
Edad: 23
Mensajes: 869
Temas: 235
Has agradecido: 1.575
Has sido agradecido 1.554 veces en 361 mensajes
Poder de Credibilidad: 3777
jheialcazador tiene una reputación que sobrepasa la famajheialcazador tiene una reputación que sobrepasa la famajheialcazador tiene una reputación que sobrepasa la famajheialcazador tiene una reputación que sobrepasa la famajheialcazador tiene una reputación que sobrepasa la famajheialcazador tiene una reputación que sobrepasa la famajheialcazador tiene una reputación que sobrepasa la famajheialcazador tiene una reputación que sobrepasa la famajheialcazador tiene una reputación que sobrepasa la famajheialcazador tiene una reputación que sobrepasa la famajheialcazador tiene una reputación que sobrepasa la fama
Reputación: 188190
Predeterminado Re: Chicken Run Evacion en la granja [DVDRip Animacion Castellano 2000 .Avi FJ & US]

El archivo no está disponible



__________________

DEJA TU GRANITO DE ARENA EN DÁ LAS GRACIAS
Dale Me gusta
Me puedes Seguir
jheialcazador esta offline  
Tema Cerrado

Etiquetas
2000, animacion, avi, castellano, chicken, dvdrip, en, evacion, fj, granja, la, run


Usuarios activos actualmente viendo este tema: 1 (0 miembros y 1 visitantes)
 
Herramientas
Desplegado



El uso horario es GMT -5. La hora actual es: 12:05:16
Powered by vBulletin™ Version 3.8.6
Copyright © 2014 vBulletin Solutions, Inc. All rights reserved.
Traducción por vBHispano
vBulletin Skin by CompletevB
HagalePues.Net 2008 - 2014
SEO by vBSEO ©2011, Crawlability, Inc.