Kun fu panda [DVDRip Animacion Castellano 2011 .Avi US & FJ] - Hagale Pues
Header Hágale Pues
Retroceder   Hagale Pues » Foros de conversación » Basura de Hagalepues
Portal Foro Temas de Hoy Registrarse Buscar




Kun fu panda [DVDRip Animacion Castellano 2011 .Avi US & FJ]



Tema Cerrado
Herramientas
Antiguo 16/12/11, 18:48:16   #1
Baneado
 
Fecha de Ingreso: nov 2011
Ubicación: En las peliculas
Mensajes: 740
Temas: 726
Has agradecido: 0
Has sido agradecido 6 veces en 6 mensajes
Poder de Credibilidad: 0
O2312 es como un diamante en brutoO2312 es como un diamante en brutoO2312 es como un diamante en brutoO2312 es como un diamante en bruto
Reputación: 335
Predeterminado Kun fu panda [DVDRip Animacion Castellano 2011 .Avi US & FJ]





Información del archivo en el servidor
Partes: 6
Servidores: US & FJ
Tamaño: 1.35 Gb

Sinopsis
En “Kung Fu Panda 2”, Po está ahora viviendo su sueño como el Guerrero del Dragón, protegiendo
el Valle de la Paz junto a sus amigos y sus compañeros maestros del kung fu. Los Cinco
Furiosos. Pero su nueva e impresionante vida se encuentra amenazada por la
aparición de un villano formidable, que planea usar un arma secreta
imparable para conquistar China y destruir el kung fu.

Caps





Ficha Tenica

TÍTULO ORIGINAL:
Kung Fu Panda:
The Kaboom of Doom
AÑO: 2011
GENERO: Comedia,
animación, aventura.
REPARTO: (Voces de)
Jack Black, Angelina
Jolie, Dustin Hoffman,
Jackie Chan, Seth Rogen,
Lucy Liu, David Cross,
James Hong, Gary Oldman,
Michelle Yeoh,
Jean-Claude Van Damme,
Victor Garber.

Datos de ripeo

General

Complete name : files/O2312KUNGFUPANDACASTELLANO.avi
Format : AVI
Format/Info : Audio Video Interleave
File size : 1.35 GiB
Duration : 1h 25mn
Overall bit rate : 2 262 Kbps
Writing application : VirtualDubMod 1.5.10.2 (build 2540/release)
Writing library : VirtualDubMod build 2540/release

Video

ID : 0
Format : MPEG-4 Visual
Format profile : Advanced Simple@L5
Format settings, BVOP : Yes
Format settings, QPel : No
Format settings, GMC : No warppoints
Format settings, Matrix : Custom
Codec ID : XVID
Codec ID/Hint : XviD
Duration : 1h 25mn
Bit rate : 2 091 Kbps
Width : 720 pixels
Height : 304 pixels
Display aspect ratio : 2.35:1
Frame rate : 29.970 fps
Color space : YUV
Chroma subsampling : 4:2:0
Bit depth : 8 bits
Scan type : Progressive
Bits/(Pixel*Frame) : 0.319
Stream size : 1.25 GiB (92%)
Writing library : XviD 58

Audio

ID : 1
Format : MPEG Audio
Format version : Version 1
Format profile : Layer 3
Codec ID : 55
Codec ID/Hint : MP3
Duration : 1h 25mn
Bit rate mode : Constant
Bit rate : 160 Kbps
Channel(s) : 2 channels
Sampling rate : 44.1 KHz
Stream size : 97.7 MiB (7%)
Alignment : Split accross interleaves
Interleave, duration : 33 ms (1.00 video frame)
Interleave, preload duration : 500 ms

Descarga
US & FJ

Servidor #1

Parte 1
http://www.filejungle.com/f/ef9nmK/O....avi.part1.rar
Parte 2
http://www.filejungle.com/f/AkeUkr/O....avi.part2.rar
Parte 3
http://www.filejungle.com/f/uRGFqs/O....avi.part3.rar
Parte 4
http://www.filejungle.com/f/ex3myD/O....avi.part4.rar
Parte 5
http://www.filejungle.com/f/xm4z97/O....avi.part5.rar
Parte 6
http://www.filejungle.com/f/AYc3hN/O....avi.part6.rar

Servidor #2

Parte 1
http://www.uploadstation.com/file/wp....avi.part1.rar
Parte 2
http://www.uploadstation.com/file/yw....avi.part2.rar
Parte 3
http://www.uploadstation.com/file/fK....avi.part3.rar
Parte 4
http://www.uploadstation.com/file/MN....avi.part4.rar
Parte 5
http://www.uploadstation.com/file/7V....avi.part5.rar
Parte 6
http://www.uploadstation.com/file/r8....avi.part6.rar

Nota: Si encuentras un link caído avísame para volverlo a subir




O2312 esta offline  
Antiguo 22/06/12, 19:59:51   #2
Moderador:
Zona Audiovisual
 
Avatar de jheialcazador
 
Fecha de Ingreso: mar 2012
Ubicación: BOGOTA
Edad: 23
Mensajes: 859
Temas: 230
Has agradecido: 1.568
Has sido agradecido 1.517 veces en 352 mensajes
Poder de Credibilidad: 3757
jheialcazador tiene una reputación que sobrepasa la famajheialcazador tiene una reputación que sobrepasa la famajheialcazador tiene una reputación que sobrepasa la famajheialcazador tiene una reputación que sobrepasa la famajheialcazador tiene una reputación que sobrepasa la famajheialcazador tiene una reputación que sobrepasa la famajheialcazador tiene una reputación que sobrepasa la famajheialcazador tiene una reputación que sobrepasa la famajheialcazador tiene una reputación que sobrepasa la famajheialcazador tiene una reputación que sobrepasa la famajheialcazador tiene una reputación que sobrepasa la fama
Reputación: 187265
Predeterminado Re: Kun fu panda [DVDRip Animacion Castellano 2011 .Avi US & FJ]

El archivo no está disponible



__________________

DEJA TU GRANITO DE ARENA EN DÁ LAS GRACIAS
Dale Me gusta
Me puedes Seguir
jheialcazador esta offline  
Tema Cerrado

Etiquetas
2011, animacion, avi, castellano, dvdrip, fj, fu, kun, panda


Usuarios activos actualmente viendo este tema: 1 (0 miembros y 1 visitantes)
 
Herramientas
Desplegado



El uso horario es GMT -5. La hora actual es: 05:27:22
Powered by vBulletin™ Version 3.8.6
Copyright © 2014 vBulletin Solutions, Inc. All rights reserved.
Traducción por vBHispano
vBulletin Skin by CompletevB
HagalePues.Net 2008 - 2014
SEO by vBSEO ©2011, Crawlability, Inc.